  0
SECTION
  2
HEADER
  9
$ACADVER
  1
AC1024
  9
$ACADMAINTVER
 70
     6
  9
$DWGCODEPAGE
  3
ANSI_1252
  9
$INSBASE
 10
0.0
 20
0.0
 30
0.0
  9
$EXTMIN
 10
-136.530113350979
 20
-29.67301756637192
 30
0.0
  9
$EXTMAX
 10
-53.25687262530759
 20
83.3395779446977
 30
0.0
  9
$LIMMIN
 10
0.0
 20
0.0
  9
$LIMMAX
 10
12.0
 20
9.0
  9
$ORTHOMODE
 70
     0
  9
$REGENMODE
 70
     1
  9
$FILLMODE
 70
     1
  9
$QTEXTMODE
 70
     0
  9
$MIRRTEXT
 70
     1
  9
$LTSCALE
 40
1.0
  9
$ATTMODE
 70
     1
  9
$TEXTSIZE
 40
0.2
  9
$TRACEWID
 40
0.05
  9
$TEXTSTYLE
  7
Standard
  9
$CLAYER
  8
0
  9
$CELTYPE
  6
ByLayer
  9
$CECOLOR
 62
   256
  9
$CELTSCALE
 40
1.0
  9
$DISPSILH
 70
     0
  9
$DIMSCALE
 40
1.0
  9
$DIMASZ
 40
0.18
  9
$DIMEXO
 40
0.0625
  9
$DIMDLI
 40
0.38
  9
$DIMRND
 40
0.0
  9
$DIMDLE
 40
0.0
  9
$DIMEXE
 40
0.18
  9
$DIMTP
 40
0.0
  9
$DIMTM
 40
0.0
  9
$DIMTXT
 40
0.18
  9
$DIMCEN
 40
0.09
  9
$DIMTSZ
 40
0.0
  9
$DIMTOL
 70
     0
  9
$DIMLIM
 70
     0
  9
$DIMTIH
 70
     1
  9
$DIMTOH
 70
     1
  9
$DIMSE1
 70
     0
  9
$DIMSE2
 70
     0
  9
$DIMTAD
 70
     0
  9
$DIMZIN
 70
     0
  9
$DIMBLK
  1

  9
$DIMASO
 70
     1
  9
$DIMSHO
 70
     1
  9
$DIMPOST
  1

  9
$DIMAPOST
  1

  9
$DIMALT
 70
     0
  9
$DIMALTD
 70
     2
  9
$DIMALTF
 40
25.4
  9
$DIMLFAC
 40
1.0
  9
$DIMTOFL
 70
     0
  9
$DIMTVP
 40
0.0
  9
$DIMTIX
 70
     0
  9
$DIMSOXD
 70
     0
  9
$DIMSAH
 70
     0
  9
$DIMBLK1
  1

  9
$DIMBLK2
  1

  9
$DIMSTYLE
  2
Standard
  9
$DIMCLRD
 70
     0
  9
$DIMCLRE
 70
     0
  9
$DIMCLRT
 70
     0
  9
$DIMTFAC
 40
1.0
  9
$DIMGAP
 40
0.09
  9
$DIMJUST
 70
     0
  9
$DIMSD1
 70
     0
  9
$DIMSD2
 70
     0
  9
$DIMTOLJ
 70
     1
  9
$DIMTZIN
 70
     0
  9
$DIMALTZ
 70
     0
  9
$DIMALTTZ
 70
     0
  9
$DIMUPT
 70
     0
  9
$DIMDEC
 70
     4
  9
$DIMTDEC
 70
     4
  9
$DIMALTU
 70
     2
  9
$DIMALTTD
 70
     2
  9
$DIMTXSTY
  7
Standard
  9
$DIMAUNIT
 70
     0
  9
$DIMADEC
 70
     0
  9
$DIMALTRND
 40
0.0
  9
$DIMAZIN
 70
     0
  9
$DIMDSEP
 70
    46
  9
$DIMATFIT
 70
     3
  9
$DIMFRAC
 70
     0
  9
$DIMLDRBLK
  1

  9
$DIMLUNIT
 70
     2
  9
$DIMLWD
 70
    -2
  9
$DIMLWE
 70
    -2
  9
$DIMTMOVE
 70
     0
  9
$DIMFXL
 40
1.0
  9
$DIMFXLON
 70
     0
  9
$DIMJOGANG
 40
0.78539816339745
  9
$DIMTFILL
 70
     0
  9
$DIMTFILLCLR
 70
     0
  9
$DIMARCSYM
 70
     0
  9
$DIMLTYPE
  6

  9
$DIMLTEX1
  6

  9
$DIMLTEX2
  6

  9
$DIMTXTDIRECTION
 70
     0
  9
$LUNITS
 70
     2
  9
$LUPREC
 70
     4
  9
$SKETCHINC
 40
0.1
  9
$FILLETRAD
 40
0.5
  9
$AUNITS
 70
     0
  9
$AUPREC
 70
     0
  9
$MENU
  1
.
  9
$ELEVATION
 40
0.0
  9
$PELEVATION
 40
0.0
  9
$THICKNESS
 40
0.0
  9
$LIMCHECK
 70
     0
  9
$CHAMFERA
 40
0.5
  9
$CHAMFERB
 40
0.5
  9
$CHAMFERC
 40
1.0
  9
$CHAMFERD
 40
0.0
  9
$SKPOLY
 70
     0
  9
$TDCREATE
 40
2457129.440519062
  9
$TDUCREATE
 40
2457129.648852396
  9
$TDUPDATE
 40
2457129.440520463
  9
$TDUUPDATE
 40
2457129.648853796
  9
$TDINDWG
 40
0.0000000116
  9
$TDUSRTIMER
 40
0.0000000116
  9
$USRTIMER
 70
     1
  9
$ANGBASE
 50
0.0
  9
$ANGDIR
 70
     0
  9
$PDMODE
 70
     0
  9
$PDSIZE
 40
0.0
  9
$PLINEWID
 40
0.0
  9
$SPLFRAME
 70
     0
  9
$SPLINETYPE
 70
     6
  9
$SPLINESEGS
 70
     8
  9
$HANDSEED
  5
6AC
  9
$SURFTAB1
 70
     6
  9
$SURFTAB2
 70
     6
  9
$SURFTYPE
 70
     6
  9
$SURFU
 70
     6
  9
$SURFV
 70
     6
  9
$UCSBASE
  2

  9
$UCSNAME
  2

  9
$UCSORG
 10
0.0
 20
0.0
 30
0.0
  9
$UCSXDIR
 10
1.0
 20
0.0
 30
0.0
  9
$UCSYDIR
 10
0.0
 20
1.0
 30
0.0
  9
$UCSORTHOREF
  2

  9
$UCSORTHOVIEW
 70
     0
  9
$UCSORGTOP
 10
0.0
 20
0.0
 30
0.0
  9
$UCSORGBOTTOM
 10
0.0
 20
0.0
 30
0.0
  9
$UCSORGLEFT
 10
0.0
 20
0.0
 30
0.0
  9
$UCSORGRIGHT
 10
0.0
 20
0.0
 30
0.0
  9
$UCSORGFRONT
 10
0.0
 20
0.0
 30
0.0
  9
$UCSORGBACK
 10
0.0
 20
0.0
 30
0.0
  9
$PUCSBASE
  2

  9
$PUCSNAME
  2

  9
$PUCSORG
 10
0.0
 20
0.0
 30
0.0
  9
$PUCSXDIR
 10
1.0
 20
0.0
 30
0.0
  9
$PUCSYDIR
 10
0.0
 20
1.0
 30
0.0
  9
$PUCSORTHOREF
  2

  9
$PUCSORTHOVIEW
 70
     0
  9
$PUCSORGTOP
 10
0.0
 20
0.0
 30
0.0
  9
$PUCSORGBOTTOM
 10
0.0
 20
0.0
 30
0.0
  9
$PUCSORGLEFT
 10
0.0
 20
0.0
 30
0.0
  9
$PUCSORGRIGHT
 10
0.0
 20
0.0
 30
0.0
  9
$PUCSORGFRONT
 10
0.0
 20
0.0
 30
0.0
  9
$PUCSORGBACK
 10
0.0
 20
0.0
 30
0.0
  9
$USERI1
 70
     0
  9
$USERI2
 70
     0
  9
$USERI3
 70
     0
  9
$USERI4
 70
     0
  9
$USERI5
 70
     0
  9
$USERR1
 40
18.1
  9
$USERR2
 40
0.0
  9
$USERR3
 40
0.0
  9
$USERR4
 40
0.0
  9
$USERR5
 40
0.0
  9
$WORLDVIEW
 70
     1
  9
$SHADEDGE
 70
     3
  9
$SHADEDIF
 70
    70
  9
$TILEMODE
 70
     1
  9
$MAXACTVP
 70
    64
  9
$PINSBASE
 10
0.0
 20
0.0
 30
0.0
  9
$PLIMCHECK
 70
     0
  9
$PEXTMIN
 10
1.00000000000000E+20
 20
1.00000000000000E+20
 30
1.00000000000000E+20
  9
$PEXTMAX
 10
-1.00000000000000E+20
 20
-1.00000000000000E+20
 30
-1.00000000000000E+20
  9
$PLIMMIN
 10
0.0
 20
0.0
  9
$PLIMMAX
 10
12.0
 20
9.0
  9
$UNITMODE
 70
     0
  9
$VISRETAIN
 70
     1
  9
$PLINEGEN
 70
     0
  9
$PSLTSCALE
 70
     1
  9
$TREEDEPTH
 70
  3020
  9
$CMLSTYLE
  2
Standard
  9
$CMLJUST
 70
     0
  9
$CMLSCALE
 40
1.0
  9
$PROXYGRAPHICS
 70
     1
  9
$MEASUREMENT
 70
     0
  9
$CELWEIGHT
370
    -1
  9
$ENDCAPS
280
     0
  9
$JOINSTYLE
280
     0
  9
$LWDISPLAY
290
     0
  9
$INSUNITS
 70
     1
  9
$HYPERLINKBASE
  1

  9
$STYLESHEET
  1

  9
$XEDIT
290
     1
  9
$CEPSNTYPE
380
     0
  9
$PSTYLEMODE
290
     1
  9
$FINGERPRINTGUID
  2
{0D817225-1FFB-4AA6-A210-4E9E23F1CEC8}
  9
$VERSIONGUID
  2
{FAEB1C32-E019-11D5-929B-00C0DF256EC4}
  9
$EXTNAMES
290
     1
  9
$PSVPSCALE
 40
0.0
  9
$OLESTARTUP
290
     0
  9
$SORTENTS
280
   127
  9
$INDEXCTL
280
     0
  9
$HIDETEXT
280
     1
  9
$XCLIPFRAME
280
     2
  9
$HALOGAP
280
     0
  9
$OBSCOLOR
 70
   257
  9
$OBSLTYPE
280
     0
  9
$INTERSECTIONDISPLAY
280
     0
  9
$INTERSECTIONCOLOR
 70
   257
  9
$DIMASSOC
280
     2
  9
$PROJECTNAME
  1

  9
$CAMERADISPLAY
290
     0
  9
$LENSLENGTH
 40
50.0
  9
$CAMERAHEIGHT
 40
0.0
  9
$STEPSPERSEC
 40
2.0
  9
$STEPSIZE
 40
6.0
  9
$3DDWFPREC
 40
2.0
  9
$PSOLWIDTH
 40
0.25
  9
$PSOLHEIGHT
 40
4.0
  9
$LOFTANG1
 40
1.5707963267949
  9
$LOFTANG2
 40
1.5707963267949
  9
$LOFTMAG1
 40
0.0
  9
$LOFTMAG2
 40
0.0
  9
$LOFTPARAM
 70
     7
  9
$LOFTNORMALS
280
     1
  9
$LATITUDE
 40
37.795
  9
$LONGITUDE
 40
-122.394
  9
$NORTHDIRECTION
 40
0.0
  9
$TIMEZONE
 70
 -8000
  9
$LIGHTGLYPHDISPLAY
280
     1
  9
$TILEMODELIGHTSYNCH
280
     1
  9
$SOLIDHIST
280
     1
  9
$SHOWHIST
280
     1
  9
$DWFFRAME
280
     2
  9
$DGNFRAME
280
     2
  9
$REALWORLDSCALE
290
     1
  9
$INTERFERECOLOR
 62
   256
  9
$CSHADOW
280
     0
  9
$SHADOWPLANELOCATION
 40
0.0
  0
ENDSEC
  0
SECTION
  2
CLASSES
  0
CLASS
  1
ACDBDICTIONARYWDFLT
  2
AcDbDictionaryWithDefault
  3
ObjectDBX Classes
 90
        0
 91
        4
280
     0
281
     0
  0
CLASS
  1
VISUALSTYLE
  2
AcDbVisualStyle
  3
ObjectDBX Classes
 90
     4095
 91
        4
280
     0
281
     0
  0
CLASS
  1
MATERIAL
  2
AcDbMaterial
  3
ObjectDBX Classes
 90
     1153
 91
        4
280
     0
281
     0
  0
ENDSEC
  0
SECTION
  2
TABLES
  0
TABLE
  2
VPORT
  5
8
330
0
100
AcDbSymbolTable
 70
     1
  0
VPORT
  5
29
330
8
100
AcDbSymbolTableRecord
100
AcDbViewportTableRecord
  2
*Active
 70
     0
 10
0.0
 20
0.0
 11
1.0
 21
1.0
 12
-94.8934929881433
 22
26.83328018916288
 13
0.0
 23
0.0
 14
0.5
 24
0.5
 15
0.5
 25
0.5
 16
0.0
 26
0.0
 36
1.0
 17
0.0
 27
0.0
 37
0.0
 40
124.3138550621766
 41
1.60267857142857
 42
50.0
 43
0.0
 44
0.0
 50
0.0
 51
0.0
 71
     0
 72
   100
 73
     1
 74
     3
 75
     0
 76
     0
 77
     0
 78
     0
281
     0
 65
     1
110
0.0
120
0.0
130
0.0
111
1.0
121
0.0
131
0.0
112
0.0
122
1.0
132
0.0
 79
     0
146
0.0
 60
     3
 61
     5
292
     1
282
     1
141
0.0
142
0.0
 63
   250
  0
ENDTAB
  0
TABLE
  2
LTYPE
  5
5
330
0
100
AcDbSymbolTable
 70
     8
  0
LTYPE
  5
14
330
5
100
AcDbSymbolTableRecord
100
AcDbLinetypeTableRecord
  2
ByBlock
 70
     0
  3

 72
    65
 73
     0
 40
0.0
  0
LTYPE
  5
15
330
5
100
AcDbSymbolTableRecord
100
AcDbLinetypeTableRecord
  2
ByLayer
 70
     0
  3

 72
    65
 73
     0
 40
0.0
  0
LTYPE
  5
16
330
5
100
AcDbSymbolTableRecord
100
AcDbLinetypeTableRecord
  2
Continuous
 70
     0
  3
Solid line
 72
    65
 73
     0
 40
0.0
  0
LTYPE
  5
3F
330
5
100
AcDbSymbolTableRecord
100
AcDbLinetypeTableRecord
  2
DASHED
 70
     0
  3
Dashed
 72
    65
 73
     2
 40
15.0
 49
7.0
 74
     0
 49
-8.0
 74
     0
  0
LTYPE
  5
40
330
5
100
AcDbSymbolTableRecord
100
AcDbLinetypeTableRecord
  2
DOTTED
 70
     0
  3
Dotted
 72
    65
 73
     2
 40
1.0
 49
0.0
 74
     0
 49
-1.0
 74
     0
  0
LTYPE
  5
41
330
5
100
AcDbSymbolTableRecord
100
AcDbLinetypeTableRecord
  2
DOT_CENTER
 70
     0
  3
Dot_Center
 72
    65
 73
     4
 40
14.0
 49
12.0
 74
     0
 49
-1.0
 74
     0
 49
0.0
 74
     0
 49
-1.0
 74
     0
  0
LTYPE
  5
42
330
5
100
AcDbSymbolTableRecord
100
AcDbLinetypeTableRecord
  2
LONG_DASHED
 70
     0
  3
Long_Dashed
 72
    65
 73
     2
 40
15.0
 49
10.0
 74
     0
 49
-5.0
 74
     0
  0
LTYPE
  5
43
330
5
100
AcDbSymbolTableRecord
100
AcDbLinetypeTableRecord
  2
DASH_CENTER
 70
     0
  3
Dash_Center
 72
    65
 73
     4
 40
14.0
 49
11.0
 74
     0
 49
-1.0
 74
     0
 49
1.0
 74
     0
 49
-1.0
 74
     0
  0
LTYPE
  5
44
330
5
100
AcDbSymbolTableRecord
100
AcDbLinetypeTableRecord
  2
PHANTOM
 70
     0
  3
Phantom
 72
    65
 73
     6
 40
13.0
 49
10.0
 74
     0
 49
-1.0
 74
     0
 49
0.0
 74
     0
 49
-1.0
 74
     0
 49
0.0
 74
     0
 49
-1.0
 74
     0
  0
LTYPE
  5
45
330
5
100
AcDbSymbolTableRecord
100
AcDbLinetypeTableRecord
  2
CENTER_DASH_DASH
 70
     0
  3
Center_Dash_Dash
 72
    65
 73
     6
 40
14.0
 49
9.0
 74
     0
 49
-1.0
 74
     0
 49
1.0
 74
     0
 49
-1.0
 74
     0
 49
1.0
 74
     0
 49
-1.0
 74
     0
  0
ENDTAB
  0
TABLE
  2
LAYER
  5
2
330
0
100
AcDbSymbolTable
 70
     5
  0
LAYER
  5
10
330
2
100
AcDbSymbolTableRecord
100
AcDbLayerTableRecord
  2
0
 70
     0
 62
     7
  6
Continuous
370
    -3
390
F
347
3E
  0
LAYER
  5
46
330
2
100
AcDbSymbolTableRecord
100
AcDbLayerTableRecord
  2
1
 70
     0
 62
     7
  6
Continuous
370
    -3
390
F
347
3E
  0
LAYER
  5
47
330
2
100
AcDbSymbolTableRecord
100
AcDbLayerTableRecord
  2
CRS
 70
     0
 62
     7
  6
Continuous
370
    -3
390
F
347
3E
  0
LAYER
  5
48
330
2
100
AcDbSymbolTableRecord
100
AcDbLayerTableRecord
  2
DRG
 70
     0
 62
     7
  6
Continuous
370
    -3
390
F
347
3E
  0
LAYER
  5
49
330
2
100
AcDbSymbolTableRecord
100
AcDbLayerTableRecord
  2
DRG2
 70
     0
 62
     7
  6
Continuous
370
    -3
390
F
347
3E
  0
ENDTAB
  0
TABLE
  2
STYLE
  5
3
330
0
100
AcDbSymbolTable
 70
     4
  0
STYLE
  5
11
330
3
100
AcDbSymbolTableRecord
100
AcDbTextStyleTableRecord
  2
Standard
 70
     0
 40
0.0
 41
1.0
 50
0.0
 71
     0
 42
0.2
  3
txt
  4

  0
STYLE
  5
64D
330
3
100
AcDbSymbolTableRecord
100
AcDbTextStyleTableRecord
  2
CONVERTER_11
 70
     0
 40
0.0
 41
0.9
 50
0.0
 71
     0
 42
0.2
  3
txt.shx
  4

  0
STYLE
  5
64F
330
3
100
AcDbSymbolTableRecord
100
AcDbTextStyleTableRecord
  2
CONVERTER_12
 70
     0
 40
0.0
 41
0.9
 50
0.0
 71
     0
 42
0.2
  3
txt.shx
  4

  0
STYLE
  5
659
330
3
100
AcDbSymbolTableRecord
100
AcDbTextStyleTableRecord
  2
CONVERTER_13
 70
     0
 40
0.0
 41
0.72
 50
0.0
 71
     0
 42
0.2
  3
txt.shx
  4

  0
ENDTAB
  0
TABLE
  2
VIEW
  5
6
330
0
100
AcDbSymbolTable
 70
     0
  0
ENDTAB
  0
TABLE
  2
UCS
  5
7
330
0
100
AcDbSymbolTable
 70
     0
  0
ENDTAB
  0
TABLE
  2
APPID
  5
9
330
0
100
AcDbSymbolTable
 70
     1
  0
APPID
  5
12
330
9
100
AcDbSymbolTableRecord
100
AcDbRegAppTableRecord
  2
ACAD
 70
     0
  0
ENDTAB
  0
TABLE
  2
DIMSTYLE
  5
A
330
0
100
AcDbSymbolTable
 70
     8
100
AcDbDimStyleTable
  0
DIMSTYLE
105
27
330
A
100
AcDbSymbolTableRecord
100
AcDbDimStyleTableRecord
  2
Standard
 70
     0
178
     0
340
11
  0
DIMSTYLE
105
65D
102
{ACAD_REACTORS
330
65E
102
}
330
A
100
AcDbSymbolTableRecord
100
AcDbDimStyleTableRecord
  2
ME10_DIM_10
 70
     0
 41
1.0
 42
0.04
 44
0.04
 73
     0
 74
     0
 78
    12
140
1.0
147
0.09
173
     1
174
     1
175
     1
176
     7
177
     7
271
     3
178
     7
271
     3
289
     0
340
659
  0
DIMSTYLE
105
669
102
{ACAD_REACTORS
330
66A
102
}
330
A
100
AcDbSymbolTableRecord
100
AcDbDimStyleTableRecord
  2
ME10_DIM_11
 70
     0
 41
1.0
 42
0.04
 44
0.04
 73
     0
 74
     0
 78
    12
140
1.0
147
0.09
173
     1
174
     1
175
     1
176
     7
177
     7
271
     3
178
     7
271
     3
289
     0
340
659
  0
DIMSTYLE
105
675
102
{ACAD_REACTORS
330
676
102
}
330
A
100
AcDbSymbolTableRecord
100
AcDbDimStyleTableRecord
  2
ME10_DIM_12
 70
     0
 41
1.0
 42
0.04
 44
0.04
 73
     0
 74
     0
 78
    12
140
1.0
147
0.09
173
     1
174
     1
175
     1
176
     7
177
     7
271
     3
178
     7
271
     3
289
     0
340
659
  0
DIMSTYLE
105
681
102
{ACAD_REACTORS
330
682
102
}
330
A
100
AcDbSymbolTableRecord
100
AcDbDimStyleTableRecord
  2
ME10_DIM_13
 70
     0
 41
1.0
 42
0.04
 44
0.04
 73
     0
 74
     0
 78
    12
140
1.0
147
0.09
173
     1
174
     1
175
     1
176
     7
177
     7
271
     3
178
     7
271
     3
289
     0
340
659
  0
DIMSTYLE
105
68D
102
{ACAD_REACTORS
330
68E
102
}
330
A
100
AcDbSymbolTableRecord
100
AcDbDimStyleTableRecord
  2
ME10_DIM_14
 70
     0
 41
1.0
 42
0.04
 44
0.04
 73
     0
 74
     0
 78
    12
140
1.0
147
0.09
173
     1
174
     1
175
     1
176
     7
177
     7
271
     3
178
     7
271
     3
289
     0
340
659
  0
DIMSTYLE
105
699
102
{ACAD_REACTORS
330
69A
102
}
330
A
100
AcDbSymbolTableRecord
100
AcDbDimStyleTableRecord
  2
ME10_DIM_15
 70
     0
 41
1.0
 42
0.04
 44
0.04
 73
     0
 74
     0
 78
    12
140
1.0
147
0.09
173
     1
174
     1
175
     1
176
     7
177
     7
271
     3
178
     7
271
     3
289
     0
340
659
  0
DIMSTYLE
105
6A5
102
{ACAD_REACTORS
330
6A6
102
}
330
A
100
AcDbSymbolTableRecord
100
AcDbDimStyleTableRecord
  2
ME10_DIM_16
 70
     0
 41
1.0
 42
0.04
 44
0.04
 73
     0
 74
     0
 78
    12
140
1.0
147
0.09
173
     1
174
     1
175
     1
176
     7
177
     7
271
     3
178
     7
271
     3
289
     0
340
659
  0
ENDTAB
  0
TABLE
  2
BLOCK_RECORD
  5
1
330
0
100
AcDbSymbolTable
 70
     8
  0
BLOCK_RECORD
  5
1F
330
1
100
AcDbSymbolTableRecord
100
AcDbBlockTableRecord
  2
*Model_Space
340
22
 70
     0
280
     1
281
     0
  0
BLOCK_RECORD
  5
1B
330
1
100
AcDbSymbolTableRecord
100
AcDbBlockTableRecord
  2
*Paper_Space
340
1E
 70
     0
280
     1
281
     0
  0
BLOCK_RECORD
  5
23
330
1
100
AcDbSymbolTableRecord
100
AcDbBlockTableRecord
  2
*Paper_Space0
340
26
 70
     0
280
     1
281
     0
  0
BLOCK_RECORD
  5
652
330
1
100
AcDbSymbolTableRecord
100
AcDbBlockTableRecord
  2
*D1
340
0
 70
     0
280
     1
281
     0
  0
BLOCK_RECORD
  5
65F
330
1
100
AcDbSymbolTableRecord
100
AcDbBlockTableRecord
  2
*D2
340
0
 70
     0
280
     1
281
     0
  0
BLOCK_RECORD
  5
66B
330
1
100
AcDbSymbolTableRecord
100
AcDbBlockTableRecord
  2
*D3
340
0
 70
     0
280
     1
281
     0
  0
BLOCK_RECORD
  5
677
330
1
100
AcDbSymbolTableRecord
100
AcDbBlockTableRecord
  2
*D4
340
0
 70
     0
280
     1
281
     0
  0
BLOCK_RECORD
  5
683
330
1
100
AcDbSymbolTableRecord
100
AcDbBlockTableRecord
  2
*D5
340
0
 70
     0
280
     1
281
     0
  0
BLOCK_RECORD
  5
68F
330
1
100
AcDbSymbolTableRecord
100
AcDbBlockTableRecord
  2
*D6
340
0
 70
     0
280
     1
281
     0
  0
BLOCK_RECORD
  5
69B
330
1
100
AcDbSymbolTableRecord
100
AcDbBlockTableRecord
  2
*D7
340
0
 70
     0
280
     1
281
     0
  0
ENDTAB
  0
ENDSEC
  0
SECTION
  2
BLOCKS
  0
BLOCK
  5
20
330
1F
100
AcDbEntity
  8
0
100
AcDbBlockBegin
  2
*Model_Space
 70
     0
 10
0.0
 20
0.0
 30
0.0
  3
*Model_Space
  1

  0
ENDBLK
  5
21
330
1F
100
AcDbEntity
  8
0
100
AcDbBlockEnd
  0
BLOCK
  5
1C
330
1B
100
AcDbEntity
 67
     1
  8
0
100
AcDbBlockBegin
  2
*Paper_Space
 70
     0
 10
0.0
 20
0.0
 30
0.0
  3
*Paper_Space
  1

  0
ENDBLK
  5
1D
330
1B
100
AcDbEntity
 67
     1
  8
0
100
AcDbBlockEnd
  0
BLOCK
  5
24
330
23
100
AcDbEntity
  8
0
100
AcDbBlockBegin
  2
*Paper_Space0
 70
     0
 10
0.0
 20
0.0
 30
0.0
  3
*Paper_Space0
  1

  0
ENDBLK
  5
25
330
23
100
AcDbEntity
  8
0
100
AcDbBlockEnd
  0
BLOCK
  5
65B
330
652
100
AcDbEntity
  8
0
100
AcDbBlockBegin
  2
*D1
 70
     1
 10
0.0
 20
0.0
 30
0.0
  3
*D1
  1

  0
LINE
  5
653
330
652
100
AcDbEntity
  8
1
  6
Continuous
 62
     7
100
AcDbLine
 10
-106.1222980968152
 20
-22.9569822540585
 30
0.0
 11
-112.9134133587213
 21
-22.9569822540585
 31
0.0
  0
LINE
  5
654
330
652
100
AcDbEntity
  8
1
  6
Continuous
 62
     7
100
AcDbLine
 10
-124.4972980968154
 20
-22.9569822540585
 30
0.0
 11
-118.9974133587387
 21
-22.9569822540585
 31
0.0
  0
LINE
  5
655
330
652
100
AcDbEntity
  8
1
  6
Continuous
 62
     7
100
AcDbLine
 10
-124.4972980968154
 20
-16.83416045132818
 30
0.0
 11
-124.4972980968154
 21
-22.9969822540585
 31
0.0
  0
LINE
  5
656
330
652
100
AcDbEntity
  8
1
  6
Continuous
 62
     7
100
AcDbLine
 10
-106.1222980968152
 20
-16.83416045132818
 30
0.0
 11
-106.1222980968152
 21
-22.9969822540585
 31
0.0
  0
SOLID
  5
657
330
652
100
AcDbEntity
  8
1
 62
     7
100
AcDbTrace
 10
-107.1222980968152
 20
-23.08863475164589
 30
0.0
 11
-107.1222980968152
 21
-22.8253297564711
 31
0.0
 12
-106.1222980968152
 22
-22.9569822540585
 32
0.0
 13
-106.1222980968152
 23
-22.9569822540585
 33
0.0
  0
SOLID
  5
658
330
652
100
AcDbEntity
  8
1
 62
     7
100
AcDbTrace
 10
-123.4972980968154
 20
-22.8253297564711
 30
0.0
 11
-123.4972980968154
 21
-23.08863475164589
 31
0.0
 12
-124.4972980968154
 22
-22.9569822540585
 32
0.0
 13
-124.4972980968154
 23
-22.9569822540585
 33
0.0
  0
MTEXT
  5
65A
330
652
100
AcDbEntity
  8
1
 62
     7
100
AcDbMText
 10
-118.9074121466871
 20
-23.45698940990696
 30
0.0
 40
1.0
 41
0.0
 46
0.0
 71
     7
 72
     1
  1
LAY LENGTH
  7
CONVERTER_13
 11
0.9999999999882478
 21
4.848136811095759E-6
 31
0.0
 73
     1
 44
0.60024009603842
  0
ENDBLK
  5
65C
330
652
100
AcDbEntity
  8
0
100
AcDbBlockEnd
  0
BLOCK
  5
667
330
65F
100
AcDbEntity
  8
0
100
AcDbBlockBegin
  2
*D2
 70
     1
 10
0.0
 20
0.0
 30
0.0
  3
*D2
  1

  0
LINE
  5
660
330
65F
100
AcDbEntity
  8
1
  6
Continuous
 62
     7
100
AcDbLine
 10
-102.4972980968151
 20
-29.1730168507884
 30
0.0
 11
-116.0222886021281
 21
-29.1730168507884
 31
0.0
  0
LINE
  5
661
330
65F
100
AcDbEntity
  8
1
  6
Continuous
 62
     7
100
AcDbLine
 10
-128.1222980968154
 20
-29.1730168507884
 30
0.0
 11
-116.7926886021299
 21
-29.1730168507884
 31
0.0
  0
LINE
  5
662
330
65F
100
AcDbEntity
  8
1
  6
Continuous
 62
     7
100
AcDbLine
 10
-128.1222980968154
 20
-16.7581250000002
 30
0.0
 11
-128.1222980968154
 21
-29.2130168507884
 31
0.0
  0
LINE
  5
663
330
65F
100
AcDbEntity
  8
1
  6
Continuous
 62
     7
100
AcDbLine
 10
-102.4972980968151
 20
-16.7581250000002
 30
0.0
 11
-102.4972980968151
 21
-29.2130168507884
 31
0.0
  0
SOLID
  5
664
330
65F
100
AcDbEntity
  8
1
 62
     7
100
AcDbTrace
 10
-103.4972980968151
 20
-29.3046693483758
 30
0.0
 11
-103.4972980968151
 21
-29.041364353201
 31
0.0
 12
-102.4972980968151
 22
-29.1730168507884
 32
0.0
 13
-102.4972980968151
 23
-29.1730168507884
 33
0.0
  0
SOLID
  5
665
330
65F
100
AcDbEntity
  8
1
 62
     7
100
AcDbTrace
 10
-127.1222980968154
 20
-29.041364353201
 30
0.0
 11
-127.1222980968154
 21
-29.3046693483758
 31
0.0
 12
-128.1222980968154
 22
-29.1730168507884
 32
0.0
 13
-128.1222980968154
 23
-29.1730168507884
 33
0.0
  0
MTEXT
  5
666
330
65F
100
AcDbEntity
  8
1
 62
     7
100
AcDbMText
 10
-116.7026873900939
 20
-29.67301756637193
 30
0.0
 40
1.0
 41
0.0
 46
0.0
 71
     7
 72
     1
  1
W
  7
CONVERTER_13
 11
0.9999999999882478
 21
4.848136811095759E-6
 31
0.0
 73
     1
 44
0.60024009603842
  0
ENDBLK
  5
668
330
65F
100
AcDbEntity
  8
0
100
AcDbBlockEnd
  0
BLOCK
  5
673
330
66B
100
AcDbEntity
  8
0
100
AcDbBlockBegin
  2
*D3
 70
     1
 10
0.0
 20
0.0
 30
0.0
  3
*D3
  1

  0
LINE
  5
66C
330
66B
100
AcDbEntity
  8
1
  6
Continuous
 62
     7
100
AcDbLine
 10
-106.4347980968152
 20
30.2569872910456
 30
0.0
 11
-117.7800254658091
 21
30.2569872910456
 31
0.0
  0
LINE
  5
66D
330
66B
100
AcDbEntity
  8
1
  6
Continuous
 62
     7
100
AcDbLine
 10
-124.1847980968154
 20
30.2569872910456
 30
0.0
 11
-118.5504254658109
 21
30.2569872910456
 31
0.0
  0
LINE
  5
66E
330
66B
100
AcDbEntity
  8
1
  6
Continuous
 62
     7
100
AcDbLine
 10
-124.1847980968154
 20
22.83437500000024
 30
0.0
 11
-124.1847980968154
 21
30.2969872910456
 31
0.0
  0
LINE
  5
66F
330
66B
100
AcDbEntity
  8
1
  6
Continuous
 62
     7
100
AcDbLine
 10
-106.4347980968152
 20
22.77437500000025
 30
0.0
 11
-106.4347980968152
 21
30.2969872910456
 31
0.0
  0
SOLID
  5
670
330
66B
100
AcDbEntity
  8
1
 62
     7
100
AcDbTrace
 10
-107.4347980968152
 20
30.1253347934582
 30
0.0
 11
-107.4347980968152
 21
30.388639788633
 31
0.0
 12
-106.4347980968152
 22
30.2569872910456
 32
0.0
 13
-106.4347980968152
 23
30.2569872910456
 33
0.0
  0
SOLID
  5
671
330
66B
100
AcDbEntity
  8
1
 62
     7
100
AcDbTrace
 10
-123.1847980968154
 20
30.388639788633
 30
0.0
 11
-123.1847980968154
 21
30.1253347934582
 31
0.0
 12
-124.1847980968154
 22
30.2569872910456
 32
0.0
 13
-124.1847980968154
 23
30.2569872910456
 33
0.0
  0
MTEXT
  5
672
330
66B
100
AcDbEntity
  8
1
 62
     7
100
AcDbMText
 10
-118.4604242537749
 20
29.75698657546208
 30
0.0
 40
1.0
 41
0.0
 46
0.0
 71
     7
 72
     1
  1
V
  7
CONVERTER_13
 11
0.9999999999882478
 21
4.848136811095759E-6
 31
0.0
 73
     1
 44
0.60024009603842
  0
ENDBLK
  5
674
330
66B
100
AcDbEntity
  8
0
100
AcDbBlockEnd
  0
BLOCK
  5
67F
330
677
100
AcDbEntity
  8
0
100
AcDbBlockBegin
  2
*D4
 70
     1
 10
0.0
 20
0.0
 30
0.0
  3
*D4
  1

  0
LINE
  5
678
330
677
100
AcDbEntity
  8
1
  6
Continuous
 62
     7
100
AcDbLine
 10
-53.25687262530758
 20
30.5699964121588
 30
0.0
 11
-80.21893093221482
 21
30.5699964121588
 31
0.0
  0
LINE
  5
679
330
677
100
AcDbEntity
  8
1
  6
Continuous
 62
     7
100
AcDbLine
 10
-92.25687262530798
 20
30.5699964121588
 30
0.0
 11
-80.98933093221655
 21
30.5699964121588
 31
0.0
  0
LINE
  5
67A
330
677
100
AcDbEntity
  8
1
  6
Continuous
 62
     7
100
AcDbLine
 10
-92.25687262530798
 20
22.83437500000024
 30
0.0
 11
-92.25687262530798
 21
30.6099964121588
 31
0.0
  0
LINE
  5
67B
330
677
100
AcDbEntity
  8
1
  6
Continuous
 62
     7
100
AcDbLine
 10
-53.25687262530758
 20
22.83437500000024
 30
0.0
 11
-53.25687262530758
 21
30.6099964121588
 31
0.0
  0
SOLID
  5
67C
330
677
100
AcDbEntity
  8
1
 62
     7
100
AcDbTrace
 10
-54.25687262530758
 20
30.4383439145714
 30
0.0
 11
-54.25687262530758
 21
30.7016489097462
 31
0.0
 12
-53.25687262530758
 22
30.5699964121588
 32
0.0
 13
-53.25687262530758
 23
30.5699964121588
 33
0.0
  0
SOLID
  5
67D
330
677
100
AcDbEntity
  8
1
 62
     7
100
AcDbTrace
 10
-91.25687262530798
 20
30.7016489097462
 30
0.0
 11
-91.25687262530798
 21
30.4383439145714
 31
0.0
 12
-92.25687262530798
 22
30.5699964121588
 32
0.0
 13
-92.25687262530798
 23
30.5699964121588
 33
0.0
  0
MTEXT
  5
67E
330
677
100
AcDbEntity
  8
1
 62
     7
100
AcDbMText
 10
-80.89932972018062
 20
30.06999569657528
 30
0.0
 40
1.0
 41
0.0
 46
0.0
 71
     7
 72
     1
  1
F
  7
CONVERTER_13
 11
0.9999999999882478
 21
4.848136811095759E-6
 31
0.0
 73
     1
 44
0.60024009603842
  0
ENDBLK
  5
680
330
677
100
AcDbEntity
  8
0
100
AcDbBlockEnd
  0
BLOCK
  5
68B
330
683
100
AcDbEntity
  8
0
100
AcDbBlockBegin
  2
*D5
 70
     1
 10
0.0
 20
0.0
 30
0.0
  3
*D5
  1

  0
LINE
  5
684
330
683
100
AcDbEntity
  8
1
  6
Continuous
 62
     7
100
AcDbLine
 10
-83.12876238908726
 20
58.2912179502556
 30
0.0
 11
-79.4800484000629
 21
58.2912179502556
 31
0.0
  0
LINE
  5
685
330
683
100
AcDbEntity
  8
1
  6
Continuous
 62
     7
100
AcDbLine
 10
-72.75687262530778
 20
58.2912179502556
 30
0.0
 11
-75.7576484000525
 21
58.2912179502556
 31
0.0
  0
LINE
  5
686
330
683
100
AcDbEntity
  8
1
  6
Continuous
 62
     7
100
AcDbLine
 10
-72.75687262530778
 20
51.11437033118556
 30
0.0
 11
-72.75687262530778
 21
58.3312179502556
 31
0.0
  0
LINE
  5
687
330
683
100
AcDbEntity
  8
1
  6
Continuous
 62
     7
100
AcDbLine
 10
-83.12876238908726
 20
49.88356594358432
 30
0.0
 11
-83.12876238908726
 21
58.3312179502556
 31
0.0
  0
SOLID
  5
688
330
683
100
AcDbEntity
  8
1
 62
     7
100
AcDbTrace
 10
-82.12876238908726
 20
58.422870447843
 30
0.0
 11
-82.12876238908726
 21
58.1595654526682
 31
0.0
 12
-83.12876238908726
 22
58.2912179502556
 32
0.0
 13
-83.12876238908726
 23
58.2912179502556
 33
0.0
  0
SOLID
  5
689
330
683
100
AcDbEntity
  8
1
 62
     7
100
AcDbTrace
 10
-73.75687262530778
 20
58.1595654526682
 30
0.0
 11
-73.75687262530778
 21
58.422870447843
 31
0.0
 12
-72.75687262530778
 22
58.2912179502556
 32
0.0
 13
-72.75687262530778
 23
58.2912179502556
 33
0.0
  0
MTEXT
  5
68A
330
683
100
AcDbEntity
  8
1
 62
     7
100
AcDbMText
 10
-79.39004718801829
 20
57.79121365674711
 30
0.0
 40
1.0
 41
0.0
 46
0.0
 71
     7
 72
     1
  1
10-3/8
  7
CONVERTER_13
 11
0.9999999999882478
 21
4.848136811095759E-6
 31
0.0
 73
     1
 44
0.60024009603842
  0
ENDBLK
  5
68C
330
683
100
AcDbEntity
  8
0
100
AcDbBlockEnd
  0
BLOCK
  5
697
330
68F
100
AcDbEntity
  8
0
100
AcDbBlockBegin
  2
*D6
 70
     1
 10
0.0
 20
0.0
 30
0.0
  3
*D6
  1

  0
LINE
  5
690
330
68F
100
AcDbEntity
  8
1
  6
Continuous
 62
     7
100
AcDbLine
 10
-136.030113350979
 20
49.51119558854531
 30
0.0
 11
-136.030113350979
 21
25.8621397252543
 31
0.0
  0
LINE
  5
691
330
68F
100
AcDbEntity
  8
1
  6
Continuous
 62
     7
100
AcDbLine
 10
-136.030113350979
 20
-3.265625
 30
0.0
 11
-136.030113350979
 21
25.0917397252543
 31
0.0
  0
LINE
  5
692
330
68F
100
AcDbEntity
  8
1
  6
Continuous
 62
     7
100
AcDbLine
 10
-130.9640274573914
 20
-3.265625
 30
0.0
 11
-136.070113350979
 21
-3.265625
 31
0.0
  0
LINE
  5
693
330
68F
100
AcDbEntity
  8
1
  6
Continuous
 62
     7
100
AcDbLine
 10
-114.6404726158828
 20
49.51119558854531
 30
0.0
 11
-136.070113350979
 21
49.51119558854531
 31
0.0
  0
SOLID
  5
694
330
68F
100
AcDbEntity
  8
1
 62
     7
100
AcDbTrace
 10
-135.8984608533916
 20
48.51119558854531
 30
0.0
 11
-136.1617658485664
 21
48.51119558854531
 31
0.0
 12
-136.030113350979
 22
49.51119558854531
 32
0.0
 13
-136.030113350979
 23
49.51119558854531
 33
0.0
  0
SOLID
  5
695
330
68F
100
AcDbEntity
  8
1
 62
     7
100
AcDbTrace
 10
-136.1617658485664
 20
-2.265625
 30
0.0
 11
-135.8984608533916
 21
-2.265625
 31
0.0
 12
-136.030113350979
 22
-3.265625
 32
0.0
 13
-136.030113350979
 23
-3.265625
 33
0.0
  0
MTEXT
  5
696
330
68F
100
AcDbEntity
  8
1
 62
     7
100
AcDbMText
 10
-135.530113350979
 20
25.1817397252543
 30
0.0
 40
1.0
 41
0.0
 46
0.0
 71
     7
 72
     1
  1
D
  7
CONVERTER_13
 11
0.0
 21
1.0
 31
0.0
 73
     1
 44
0.60024009603842
  0
ENDBLK
  5
698
330
68F
100
AcDbEntity
  8
0
100
AcDbBlockEnd
  0
BLOCK
  5
6A3
330
69B
100
AcDbEntity
  8
0
100
AcDbBlockBegin
  2
*D7
 70
     1
 10
0.0
 20
0.0
 30
0.0
  3
*D7
  1

  0
LINE
  5
69C
330
69B
100
AcDbEntity
  8
1
  6
Continuous
 62
     7
100
AcDbLine
 10
-91.29662423937688
 20
48.34578025483934
 30
0.0
 11
-91.29662423937688
 21
46.34578025483934
 31
0.0
  0
LINE
  5
69D
330
69B
100
AcDbEntity
  8
1
  6
Continuous
 62
     7
100
AcDbLine
 10
-91.29662423937688
 20
50.27835163232932
 30
0.0
 11
-91.29662423937688
 21
52.6769021128464
 31
0.0
  0
LINE
  5
69E
330
69B
100
AcDbEntity
  8
1
  6
Continuous
 62
     7
100
AcDbLine
 10
-83.04584543312889
 20
50.27835163232932
 30
0.0
 11
-91.33662423937689
 21
50.27835163232932
 31
0.0
  0
LINE
  5
69F
330
69B
100
AcDbEntity
  8
1
  6
Continuous
 62
     7
100
AcDbLine
 10
-83.04584543312889
 20
48.34578025483934
 30
0.0
 11
-91.33662423937689
 21
48.34578025483934
 31
0.0
  0
SOLID
  5
6A0
330
69B
100
AcDbEntity
  8
1
 62
     7
100
AcDbTrace
 10
-91.16497174178949
 20
47.34578025483934
 30
0.0
 11
-91.42827673696428
 21
47.34578025483934
 31
0.0
 12
-91.29662423937688
 22
48.34578025483934
 32
0.0
 13
-91.29662423937688
 23
48.34578025483934
 33
0.0
  0
SOLID
  5
6A1
330
69B
100
AcDbEntity
  8
1
 62
     7
100
AcDbTrace
 10
-91.42827673696428
 20
51.27835163232932
 30
0.0
 11
-91.16497174178949
 21
51.27835163232932
 31
0.0
 12
-91.29662423937688
 22
50.27835163232932
 32
0.0
 13
-91.29662423937688
 23
50.27835163232932
 33
0.0
  0
MTEXT
  5
6A2
330
69B
100
AcDbEntity
  8
1
 62
     7
100
AcDbMText
 10
-90.79662423937688
 20
52.5869021128464
 30
0.0
 40
1.0
 41
0.0
 46
0.0
 71
     7
 72
     1
  1
2 SQ.
  7
CONVERTER_13
 11
0.0
 21
1.0
 31
0.0
 73
     1
 44
0.60024009603842
  0
ENDBLK
  5
6A4
330
69B
100
AcDbEntity
  8
0
100
AcDbBlockEnd
  0
ENDSEC
  0
SECTION
  2
ENTITIES
  0
POINT
  5
4A
330
1F
100
AcDbEntity
  8
1
 62
     7
100
AcDbPoint
 10
-124.497298096815
 20
-16.7941604513282
 30
0.0
  0
POINT
  5
4B
330
1F
100
AcDbEntity
  8
1
 62
     7
100
AcDbPoint
 10
-106.122298096815
 20
-16.7941604513282
 30
0.0
  0
POINT
  5
4C
330
1F
100
AcDbEntity
  8
1
 62
     7
100
AcDbPoint
 10
-128.122298096815
 20
-16.7181250000002
 30
0.0
  0
POINT
  5
4D
330
1F
100
AcDbEntity
  8
1
 62
     7
100
AcDbPoint
 10
-102.497298096815
 20
-16.7181250000002
 30
0.0
  0
POINT
  5
4E
330
1F
100
AcDbEntity
  8
1
 62
     7
100
AcDbPoint
 10
-124.184798096815
 20
22.7943750000002
 30
0.0
  0
POINT
  5
4F
330
1F
100
AcDbEntity
  8
1
 62
     7
100
AcDbPoint
 10
-106.434798096815
 20
22.7343750000002
 30
0.0
  0
POINT
  5
50
330
1F
100
AcDbEntity
  8
1
 62
     7
100
AcDbPoint
 10
-92.25687262530799
 20
22.7943750000002
 30
0.0
  0
POINT
  5
51
330
1F
100
AcDbEntity
  8
1
 62
     7
100
AcDbPoint
 10
-53.2568726253076
 20
22.7943750000002
 30
0.0
  0
POINT
  5
52
330
1F
100
AcDbEntity
  8
1
 62
     7
100
AcDbPoint
 10
-72.7568726253078
 20
51.07437033118559
 30
0.0
  0
POINT
  5
53
330
1F
100
AcDbEntity
  8
1
 62
     7
100
AcDbPoint
 10
-83.1287623890873
 20
49.8435659435843
 30
0.0
  0
POINT
  5
54
330
1F
100
AcDbEntity
  8
1
 62
     7
100
AcDbPoint
 10
-130.924027457391
 20
-3.26562500000004
 30
0.0
  0
POINT
  5
55
330
1F
100
AcDbEntity
  8
1
 62
     7
100
AcDbPoint
 10
-114.600472615883
 20
49.5111955885453
 30
0.0
  0
POINT
  5
56
330
1F
100
AcDbEntity
  8
1
 62
     7
100
AcDbPoint
 10
-83.005845433129
 20
50.27835163232929
 30
0.0
  0
POINT
  5
57
330
1F
100
AcDbEntity
  8
1
 62
     7
100
AcDbPoint
 10
-83.005845433129
 20
48.3457802548393
 30
0.0
  0
POINT
  5
58
330
1F
100
AcDbEntity
  8
0
 62
     7
100
AcDbPoint
 10
-130.924027457391
 20
-3.26562500000004
 30
0.0
  0
POINT
  5
59
330
1F
100
AcDbEntity
  8
0
 62
     7
100
AcDbPoint
 10
-102.497298096815
 20
-19.1406250000002
 30
0.0
  0
POINT
  5
5A
330
1F
100
AcDbEntity
  8
0
 62
     7
100
AcDbPoint
 10
-103.579798096815
 20
12.6093750000001
 30
0.0
  0
POINT
  5
5B
330
1F
100
AcDbEntity
  8
0
 62
     7
100
AcDbPoint
 10
-102.497298096815
 20
-16.7181250000002
 30
0.0
  0
POINT
  5
5C
330
1F
100
AcDbEntity
  8
0
 62
     7
100
AcDbPoint
 10
-128.122298096815
 20
-16.7181250000002
 30
0.0
  0
POINT
  5
5D
330
1F
100
AcDbEntity
  8
0
 62
     7
100
AcDbPoint
 10
-72.7568726253078
 20
11.7343750000001
 30
0.0
  0
POINT
  5
5E
330
1F
100
AcDbEntity
  8
0
 62
     7
100
AcDbPoint
 10
-72.7568726253078
 20
-18.2656250000002
 30
0.0
  0
POINT
  5
5F
330
1F
100
AcDbEntity
  8
0
 62
     7
100
AcDbPoint
 10
-53.2568726253076
 20
24.2943750000003
 30
0.0
  0
POINT
  5
60
330
1F
100
AcDbEntity
  8
0
 62
     7
100
AcDbPoint
 10
-92.25687262530799
 20
24.2943750000003
 30
0.0
  0
POINT
  5
61
330
1F
100
AcDbEntity
  8
0
 62
     7
100
AcDbPoint
 10
-106.434798096815
 20
24.2943750000003
 30
0.0
  0
POINT
  5
62
330
1F
100
AcDbEntity
  8
0
 62
     7
100
AcDbPoint
 10
-124.184798096815
 20
24.2943750000003
 30
0.0
  0
POINT
  5
63
330
1F
100
AcDbEntity
  8
0
 62
     7
100
AcDbPoint
 10
-102.497298096815
 20
-19.1406250000002
 30
0.0
  0
LINE
  5
80
330
1F
100
AcDbEntity
  8
DRG2
  6
Continuous
 62
     7
100
AcDbLine
 10
-73.012770263103
 20
46.65458562862359
 30
0.0
 11
-73.012770263103
 21
46.3789872034268
 31
0.0
  0
LINE
  5
81
330
1F
100
AcDbEntity
  8
DRG2
  6
Continuous
 62
     7
100
AcDbLine
 10
-73.012770263103
 20
46.3789872034268
 30
0.0
 11
-72.9734159323943
 21
46.3396564947654
 31
0.0
  0
LINE
  5
82
330
1F
100
AcDbEntity
  8
DRG2
  6
Continuous
 62
     7
100
AcDbLine
 10
-73.012770263103
 20
46.3789872034268
 30
0.0
 11
-72.50097498751249
 21
46.3789872034268
 31
0.0
  0
LINE
  5
83
330
1F
100
AcDbEntity
  8
DRG2
  6
Continuous
 62
     7
100
AcDbLine
 10
-72.9734159323943
 20
46.3396564947654
 30
0.0
 11
-72.5403293182211
 21
46.3396564947654
 31
0.0
  0
LINE
  5
84
330
1F
100
AcDbEntity
  8
DRG2
  6
Continuous
 62
     7
100
AcDbLine
 10
-72.5403293182211
 20
46.3396564947654
 30
0.0
 11
-72.50097498751249
 21
46.3789872034268
 31
0.0
  0
LINE
  5
85
330
1F
100
AcDbEntity
  8
DRG2
  6
Continuous
 62
     7
100
AcDbLine
 10
-72.50097498751249
 20
46.3789872034268
 30
0.0
 11
-72.50097498751249
 21
46.65458562862359
 31
0.0
  0
LINE
  5
86
330
1F
100
AcDbEntity
  8
DRG2
  6
Continuous
 62
     7
100
AcDbLine
 10
-72.5403293182211
 20
46.3396564947654
 30
0.0
 11
-72.50097498751249
 21
46.3789872034268
 31
0.0
  0
LINE
  5
87
330
1F
100
AcDbEntity
  8
DRG2
  6
Continuous
 62
     7
100
AcDbLine
 10
-73.012770263103
 20
46.3789872034268
 30
0.0
 11
-72.50097498751249
 21
46.3789872034268
 31
0.0
  0
LINE
  5
88
330
1F
100
AcDbEntity
  8
1
  6
Continuous
 62
     7
100
AcDbLine
 10
-80.62876238908729
 20
48.72056594358429
 30
0.0
 11
-80.62876238908729
 21
47.6245659435843
 31
0.0
  0
LINE
  5
89
330
1F
100
AcDbEntity
  8
DRG
  6
Continuous
 62
     7
100
AcDbLine
 10
-80.4340379796385
 20
48.72056594358429
 30
0.0
 11
-80.4340379796385
 21
47.6978927152378
 31
0.0
  0
LINE
  5
8A
330
1F
100
AcDbEntity
  8
1
  6
Continuous
 62
     7
100
AcDbLine
 10
-80.62876238908729
 20
48.72056594358429
 30
0.0
 11
-80.4340379796385
 21
48.72056594358429
 31
0.0
  0
LINE
  5
8B
330
1F
100
AcDbEntity
  8
1
  6
Continuous
 62
     7
100
AcDbLine
 10
-80.62876238908729
 20
49.90356594358429
 30
0.0
 11
-80.62876238908729
 21
48.72056594358429
 31
0.0
  0
LINE
  5
8C
330
1F
100
AcDbEntity
  8
DRG
  6
Continuous
 62
     7
100
AcDbLine
 10
-80.4340379796385
 20
49.90356594358429
 30
0.0
 11
-80.4340379796385
 21
48.72056594358429
 31
0.0
  0
LINE
  5
8D
330
1F
100
AcDbEntity
  8
1
  6
Continuous
 62
     7
100
AcDbLine
 10
-80.62876238908729
 20
49.90356594358429
 30
0.0
 11
-80.4340379796385
 21
49.90356594358429
 31
0.0
  0
LINE
  5
8E
330
1F
100
AcDbEntity
  8
1
  6
Continuous
 62
     7
100
AcDbLine
 10
-80.62876238908729
 20
50.99956594358429
 30
0.0
 11
-80.62876238908729
 21
49.90356594358429
 31
0.0
  0
LINE
  5
8F
330
1F
100
AcDbEntity
  8
1
  6
Continuous
 62
     7
100
AcDbLine
 10
-115.468298096815
 20
49.9290582984728
 30
0.0
 11
-115.468298096815
 21
50.08609541757999
 31
0.0
  0
LINE
  5
90
330
1F
100
AcDbEntity
  8
1
  6
Continuous
 62
     7
100
AcDbLine
 10
-115.151298096815
 20
50.08609541757999
 30
0.0
 11
-115.151298096815
 21
49.9290582984728
 31
0.0
  0
LINE
  5
91
330
1F
100
AcDbEntity
  8
1
  6
Continuous
 62
     7
100
AcDbLine
 10
-115.151298096815
 20
49.9290582984728
 30
0.0
 11
-115.468298096815
 21
49.9290582984728
 31
0.0
  0
LINE
  5
92
330
1F
100
AcDbEntity
  8
0
  6
Continuous
 62
     7
100
AcDbLine
 10
-116.237046478429
 20
48.1037152735846
 30
0.0
 11
-120.747298096815
 21
48.1037152735846
 31
0.0
  0
LINE
  5
93
330
1F
100
AcDbEntity
  8
1
  6
Continuous
 62
     7
100
AcDbLine
 10
-116.278548096815
 20
50.4198825366874
 30
0.0
 11
-116.278548096815
 21
48.60738253668729
 31
0.0
  0
LINE
  5
94
330
1F
100
AcDbEntity
  8
1
  6
Continuous
 62
     7
100
AcDbLine
 10
-114.341048096815
 20
48.60738253668729
 30
0.0
 11
-114.341048096815
 21
50.4198825366873
 31
0.0
  0
LINE
  5
95
330
1F
100
AcDbEntity
  8
1
  6
Continuous
 62
     7
100
AcDbLine
 10
-116.247298096815
 20
50.5136325366874
 30
0.0
 11
-114.372298096815
 21
50.5136325366874
 31
0.0
  0
LINE
  5
96
330
1F
100
AcDbEntity
  8
1
  6
Continuous
 62
     7
100
AcDbLine
 10
-114.309798096815
 20
50.4511325366874
 30
0.0
 11
-114.309798096815
 21
48.5761325366874
 31
0.0
  0
LINE
  5
97
330
1F
100
AcDbEntity
  8
1
  6
Continuous
 62
     7
100
AcDbLine
 10
-114.372298096815
 20
48.5136325366874
 30
0.0
 11
-116.247298096815
 21
48.5136325366874
 31
0.0
  0
LINE
  5
98
330
1F
100
AcDbEntity
  8
1
  6
Continuous
 62
     7
100
AcDbLine
 10
-116.309798096815
 20
48.5761325366874
 30
0.0
 11
-116.309798096815
 21
50.45113253668729
 31
0.0
  0
LINE
  5
99
330
1F
100
AcDbEntity
  8
1
  6
Continuous
 62
     7
100
AcDbLine
 10
-114.403548096815
 20
50.4823825366874
 30
0.0
 11
-116.216048096815
 21
50.4823825366874
 31
0.0
  0
LINE
  5
9A
330
1F
100
AcDbEntity
  8
1
  6
Continuous
 62
     7
100
AcDbLine
 10
-114.809798096815
 20
48.20376348278129
 30
0.0
 11
-114.809798096815
 21
48.2250133014519
 31
0.0
  0
LINE
  5
9B
330
1F
100
AcDbEntity
  8
1
  6
Continuous
 62
     7
100
AcDbLine
 10
-114.809798096815
 20
47.97511330145179
 30
0.0
 11
-114.809798096815
 21
48.00323420662959
 31
0.0
  0
LINE
  5
9C
330
1F
100
AcDbEntity
  8
1
  6
Continuous
 62
     7
100
AcDbLine
 10
-114.184706587952
 20
48.51054710981979
 30
0.0
 11
-114.231357766853
 21
48.55213938683299
 31
0.0
  0
LINE
  5
9D
330
1F
100
AcDbEntity
  8
1
  6
Continuous
 62
     7
100
AcDbLine
 10
-114.138055409051
 20
48.4689548328067
 30
0.0
 11
-114.184706587952
 21
48.51054710981979
 31
0.0
  0
LINE
  5
9E
330
1F
100
AcDbEntity
  8
1
  6
Continuous
 62
     7
100
AcDbLine
 10
-115.468298096815
 20
50.08609541757999
 30
0.0
 11
-115.468298096815
 21
50.24313253668739
 31
0.0
  0
LINE
  5
9F
330
1F
100
AcDbEntity
  8
1
  6
Continuous
 62
     7
100
AcDbLine
 10
-115.468298096815
 20
50.24313253668739
 30
0.0
 11
-115.151298096815
 21
50.24313253668739
 31
0.0
  0
LINE
  5
A0
330
1F
100
AcDbEntity
  8
1
  6
Continuous
 62
     7
100
AcDbLine
 10
-115.151298096815
 20
50.24313253668739
 30
0.0
 11
-115.151298096815
 21
50.08609541757999
 31
0.0
  0
LINE
  5
A1
330
1F
100
AcDbEntity
  8
1
  6
Continuous
 62
     7
100
AcDbLine
 10
-116.216048096815
 20
48.5448825366873
 30
0.0
 11
-114.403548096815
 21
48.5448825366873
 31
0.0
  0
LINE
  5
A2
330
1F
100
AcDbEntity
  8
1
  6
DASH_CENTER
 62
     7
100
AcDbLine
 10
-83.51240623225688
 20
49.31206594358429
 30
0.0
 11
-81.86710884578018
 21
49.31206594358429
 31
0.0
  0
LINE
  5
A3
330
1F
100
AcDbEntity
  8
1
  6
DASH_CENTER
 62
     7
100
AcDbLine
 10
-81.86710884578018
 20
49.31206594358429
 30
0.0
 11
-80.69990623225688
 21
49.31206594358429
 31
0.0
  0
LINE
  5
A4
330
1F
100
AcDbEntity
  8
DRG
  6
Continuous
 62
     7
100
AcDbLine
 10
-70.7883686882997
 20
47.0679714553953
 30
0.0
 11
-67.63876238908719
 21
47.0679714553953
 31
0.0
  0
LINE
  5
A5
330
1F
100
AcDbEntity
  8
DRG
  6
Continuous
 62
     7
100
AcDbLine
 10
-67.63876238908719
 20
47.0679714553953
 30
0.0
 11
-67.63876238908719
 21
46.65458562862359
 31
0.0
  0
LINE
  5
A6
330
1F
100
AcDbEntity
  8
DRG
  6
Continuous
 62
     7
100
AcDbLine
 10
-67.63876238908719
 20
47.6611331089386
 30
0.0
 11
-67.63876238908719
 21
47.0679714553953
 31
0.0
  0
LINE
  5
A7
330
1F
100
AcDbEntity
  8
DRG
  6
Continuous
 62
     7
100
AcDbLine
 10
-77.8749828615283
 20
51.28056988059209
 30
0.0
 11
-77.8749828615283
 21
47.0679714553953
 31
0.0
  0
LINE
  5
A8
330
1F
100
AcDbEntity
  8
DRG
  6
Continuous
 62
     7
100
AcDbLine
 10
-77.8749828615283
 20
47.0679714553953
 30
0.0
 11
-70.7883686882997
 21
47.0679714553953
 31
0.0
  0
LINE
  5
A9
330
1F
100
AcDbEntity
  8
DRG
  6
Continuous
 62
     7
100
AcDbLine
 10
-77.8749828615283
 20
51.28056988059209
 30
0.0
 11
-76.6938804993235
 21
51.28056988059209
 31
0.0
  0
LINE
  5
AA
330
1F
100
AcDbEntity
  8
DRG
  6
Continuous
 62
     7
100
AcDbLine
 10
-75.21082475129198
 20
50.84749901445039
 30
0.0
 11
-70.29624270404778
 21
50.84749901445039
 31
0.0
  0
LINE
  5
AB
330
1F
100
AcDbEntity
  8
DRG
  6
Continuous
 62
     7
100
AcDbLine
 10
-70.29624270404778
 20
50.84749901445039
 30
0.0
 11
-70.29624270404778
 21
49.7057667309859
 31
0.0
  0
LINE
  5
AC
330
1F
100
AcDbEntity
  8
DRG
  6
Continuous
 62
     7
100
AcDbLine
 10
-76.3986049087723
 20
49.31206594358429
 30
0.0
 11
-68.8789198694022
 21
49.31206594358429
 31
0.0
  0
LINE
  5
AD
330
1F
100
AcDbEntity
  8
DRG
  6
Continuous
 62
     7
100
AcDbLine
 10
-68.2489986095596
 20
48.6821446837418
 30
0.0
 11
-68.2489986095596
 21
48.3278139750804
 31
0.0
  0
LINE
  5
AE
330
1F
100
AcDbEntity
  8
DRG
  6
Continuous
 62
     7
100
AcDbLine
 10
-77.12695136546519
 20
47.8553730301985
 30
0.0
 11
-74.7253765623156
 21
47.8553730301985
 31
0.0
  0
LINE
  5
AF
330
1F
100
AcDbEntity
  8
DRG
  6
Continuous
 62
     7
100
AcDbLine
 10
-75.21082475129198
 20
50.84749901445039
 30
0.0
 11
-75.21082475129198
 21
49.5482864160253
 31
0.0
  0
LINE
  5
B0
330
1F
100
AcDbEntity
  8
DRG
  6
Continuous
 62
     7
100
AcDbLine
 10
-78.3671088457802
 20
51.28056988059209
 30
0.0
 11
-78.3671088457802
 21
47.3435620065764
 31
0.0
  0
LINE
  5
B1
330
1F
100
AcDbEntity
  8
DRG
  6
Continuous
 62
     7
100
AcDbLine
 10
-78.3671088457802
 20
47.3435620065764
 30
0.0
 11
-77.8749828615283
 21
47.3435620065764
 31
0.0
  0
LINE
  5
B2
330
1F
100
AcDbEntity
  8
CRS
  6
DASH_CENTER
 62
     7
100
AcDbLine
 10
-77.63140825522899
 20
49.31206594358429
 30
0.0
 11
-82.9858139245204
 21
49.31206594358429
 31
0.0
  0
LINE
  5
B3
330
1F
100
AcDbEntity
  8
DRG
  6
Continuous
 62
     7
100
AcDbLine
 10
-78.9576600268825
 20
50.8868690931906
 30
0.0
 11
-80.0746504993235
 21
50.78914507744259
 31
0.0
  0
LINE
  5
B4
330
1F
100
AcDbEntity
  8
DRG
  6
Continuous
 62
     7
100
AcDbLine
 10
-80.2765576646779
 20
47.54041240027719
 30
0.0
 11
-78.4852190820006
 21
47.54041240027719
 31
0.0
  0
LINE
  5
B5
330
1F
100
AcDbEntity
  8
DRG
  6
Continuous
 62
     7
100
AcDbLine
 10
-78.9576600268825
 20
47.737262793978
 30
0.0
 11
-80.0746504993235
 21
47.83498680972609
 31
0.0
  0
LINE
  5
B6
330
1F
100
AcDbEntity
  8
DRG
  6
Continuous
 62
     7
100
AcDbLine
 10
-80.4340379796385
 20
50.39694243964739
 30
0.0
 11
-80.4340379796385
 21
49.90356594358429
 31
0.0
  0
LINE
  5
B7
330
1F
100
AcDbEntity
  8
DRG
  6
Continuous
 62
     7
100
AcDbLine
 10
-78.9576600268825
 20
50.8868690931906
 30
0.0
 11
-78.9576600268825
 21
47.737262793978
 31
0.0
  0
LINE
  5
B8
330
1F
100
AcDbEntity
  8
DRG
  6
Continuous
 62
     7
100
AcDbLine
 10
-78.9576600268825
 20
47.737262793978
 30
0.0
 11
-78.4852190820006
 21
47.737262793978
 31
0.0
  0
LINE
  5
B9
330
1F
100
AcDbEntity
  8
DRG
  6
Continuous
 62
     7
100
AcDbLine
 10
-78.9576600268825
 20
50.8868690931906
 30
0.0
 11
-78.4852190820006
 21
50.8868690931906
 31
0.0
  0
LINE
  5
BA
330
1F
100
AcDbEntity
  8
DRG
  6
Continuous
 62
     7
100
AcDbLine
 10
-78.3671088457802
 20
51.28056988059209
 30
0.0
 11
-77.8749828615283
 21
51.28056988059209
 31
0.0
  0
LINE
  5
BB
330
1F
100
AcDbEntity
  8
DRG2
  6
Continuous
 62
     7
100
AcDbLine
 10
-77.4293214442052
 20
46.3396564947654
 30
0.0
 11
-76.9962348300321
 21
46.3396564947654
 31
0.0
  0
LINE
  5
BC
330
1F
100
AcDbEntity
  8
DRG2
  6
Continuous
 62
     7
100
AcDbLine
 10
-77.4686757749139
 20
46.3789872034268
 30
0.0
 11
-76.9568804993233
 21
46.3789872034268
 31
0.0
  0
LINE
  5
BD
330
1F
100
AcDbEntity
  8
DRG2
  6
Continuous
 62
     7
100
AcDbLine
 10
-77.4686757749139
 20
46.3789872034268
 30
0.0
 11
-77.4293214442052
 21
46.3396564947654
 31
0.0
  0
LINE
  5
BE
330
1F
100
AcDbEntity
  8
DRG2
  6
Continuous
 62
     7
100
AcDbLine
 10
-77.4686757749139
 20
46.65458562862359
 30
0.0
 11
-77.4686757749139
 21
46.3789872034268
 31
0.0
  0
LINE
  5
BF
330
1F
100
AcDbEntity
  8
DRG2
  6
Continuous
 62
     7
100
AcDbLine
 10
-76.9962348300321
 20
46.3396564947654
 30
0.0
 11
-76.9568804993233
 21
46.3789872034268
 31
0.0
  0
LINE
  5
C0
330
1F
100
AcDbEntity
  8
CRS
  6
DASH_CENTER
 62
     7
100
AcDbLine
 10
-77.2127781371188
 20
46.28226153413549
 30
0.0
 11
-77.2127781371188
 21
46.6945338176001
 31
0.0
  0
LINE
  5
C1
330
1F
100
AcDbEntity
  8
DRG2
  6
Continuous
 62
     7
100
AcDbLine
 10
-76.9568804993233
 20
46.3789872034268
 30
0.0
 11
-76.9568804993233
 21
46.65458562862359
 31
0.0
  0
LINE
  5
C2
330
1F
100
AcDbEntity
  8
DRG2
  6
Continuous
 62
     7
100
AcDbLine
 10
-68.5568647512919
 20
46.3789872034268
 30
0.0
 11
-68.0450694757014
 21
46.3789872034268
 31
0.0
  0
LINE
  5
C3
330
1F
100
AcDbEntity
  8
DRG2
  6
Continuous
 62
     7
100
AcDbLine
 10
-68.08442380641
 20
46.3396564947654
 30
0.0
 11
-68.0450694757014
 21
46.3789872034268
 31
0.0
  0
LINE
  5
C4
330
1F
100
AcDbEntity
  8
DRG2
  6
Continuous
 62
     7
100
AcDbLine
 10
-68.5568647512919
 20
46.3789872034268
 30
0.0
 11
-68.51751042058329
 21
46.3396564947654
 31
0.0
  0
LINE
  5
C5
330
1F
100
AcDbEntity
  8
CRS
  6
DASH_CENTER
 62
     7
100
AcDbLine
 10
-68.3009671134967
 20
46.28226153413549
 30
0.0
 11
-68.3009671134967
 21
46.6945338176001
 31
0.0
  0
LINE
  5
C6
330
1F
100
AcDbEntity
  8
DRG2
  6
Continuous
 62
     7
100
AcDbLine
 10
-68.51751042058329
 20
46.3396564947654
 30
0.0
 11
-68.08442380641
 21
46.3396564947654
 31
0.0
  0
LINE
  5
C7
330
1F
100
AcDbEntity
  8
DRG2
  6
Continuous
 62
     7
100
AcDbLine
 10
-68.5568647512919
 20
46.65458562862359
 30
0.0
 11
-68.5568647512919
 21
46.3789872034268
 31
0.0
  0
LINE
  5
C8
330
1F
100
AcDbEntity
  8
DRG2
  6
Continuous
 62
     7
100
AcDbLine
 10
-68.0450694757014
 20
46.3789872034268
 30
0.0
 11
-68.0450694757014
 21
46.65458562862359
 31
0.0
  0
LINE
  5
C9
330
1F
100
AcDbEntity
  8
DRG
  6
Continuous
 62
     7
100
AcDbLine
 10
-77.8749828615283
 20
47.0679714553953
 30
0.0
 11
-77.8749828615283
 21
46.65458562862359
 31
0.0
  0
LINE
  5
CA
330
1F
100
AcDbEntity
  8
DRG
  6
Continuous
 62
     7
100
AcDbLine
 10
-70.7883686882997
 20
46.65458562862359
 30
0.0
 11
-76.8918726253077
 21
46.65458562862359
 31
0.0
  0
LINE
  5
CB
330
1F
100
AcDbEntity
  8
DRG
  6
Continuous
 62
     7
100
AcDbLine
 10
-67.63876238908719
 20
46.65458562862359
 30
0.0
 11
-68.6218726253076
 21
46.65458562862359
 31
0.0
  0
LINE
  5
CC
330
1F
100
AcDbEntity
  8
DRG
  6
Continuous
 62
     7
100
AcDbLine
 10
-74.7253765623156
 20
47.8553730301985
 30
0.0
 11
-67.8036608536541
 21
47.8553730301985
 31
0.0
  0
LINE
  5
CD
330
1F
100
AcDbEntity
  8
DRG
  6
Continuous
 62
     7
100
AcDbLine
 10
-77.0285261686148
 20
48.6821446837418
 30
0.0
 11
-77.0285261686148
 21
47.8553730301985
 31
0.0
  0
LINE
  5
CE
330
1F
100
AcDbEntity
  8
DRG
  6
Continuous
 62
     7
100
AcDbLine
 10
-77.3238017591661
 20
47.6585226364977
 30
0.0
 11
-77.3238017591661
 21
47.0679714553953
 31
0.0
  0
LINE
  5
CF
330
1F
100
AcDbEntity
  8
DRG
  6
Continuous
 62
     7
100
AcDbLine
 10
-76.8918726253077
 20
46.65458562862359
 30
0.0
 11
-76.8918726253077
 21
44.77891212397849
 31
0.0
  0
LINE
  5
D0
330
1F
100
AcDbEntity
  8
DRG
  6
Continuous
 62
     7
100
AcDbLine
 10
-68.6218726253076
 20
46.65458562862359
 30
0.0
 11
-68.6218726253076
 21
44.77891212397849
 31
0.0
  0
LINE
  5
D1
330
1F
100
AcDbEntity
  8
DRG
  6
Continuous
 62
     7
100
AcDbLine
 10
-68.6218726253076
 20
46.65458562862359
 30
0.0
 11
-70.7883686882997
 21
46.65458562862359
 31
0.0
  0
LINE
  5
D2
330
1F
100
AcDbEntity
  8
DRG
  6
Continuous
 62
     7
100
AcDbLine
 10
-76.8918726253077
 20
46.65458562862359
 30
0.0
 11
-77.8749828615283
 21
46.65458562862359
 31
0.0
  0
LINE
  5
D3
330
1F
100
AcDbEntity
  8
0
  6
Continuous
 62
     7
100
AcDbLine
 10
-109.872298096815
 20
48.1037152735846
 30
0.0
 11
-109.872298096815
 21
46.8537152735846
 31
0.0
  0
LINE
  5
D4
330
1F
100
AcDbEntity
  8
0
  6
Continuous
 62
     7
100
AcDbLine
 10
-110.174922096815
 20
49.23312527358459
 30
0.0
 11
-109.872298096815
 21
48.1037152735846
 31
0.0
  0
LINE
  5
D5
330
1F
100
AcDbEntity
  8
0
  6
Continuous
 62
     7
100
AcDbLine
 10
-111.184798096815
 20
46.8537152735846
 30
0.0
 11
-111.184798096815
 21
44.77891212397839
 31
0.0
  0
LINE
  5
D6
330
1F
100
AcDbEntity
  8
0
  6
Continuous
 62
     7
100
AcDbLine
 10
-113.059798096815
 20
51.0137152735844
 30
0.0
 11
-111.379426096815
 21
49.60371527358459
 31
0.0
  0
LINE
  5
D7
330
1F
100
AcDbEntity
  8
0
  6
Continuous
 62
     7
100
AcDbLine
 10
-113.059798096815
 20
51.4796995255531
 30
0.0
 11
-117.559798096815
 21
51.4796995255531
 31
0.0
  0
LINE
  5
D8
330
1F
100
AcDbEntity
  8
0
  6
Continuous
 62
     7
100
AcDbLine
 10
-113.624704226874
 20
49.60371527358459
 30
0.0
 11
-110.657884096815
 21
49.60371527358459
 31
0.0
  0
LINE
  5
D9
330
1F
100
AcDbEntity
  8
0
  6
Continuous
 62
     7
100
AcDbLine
 10
-119.961660096815
 20
49.60371527358459
 30
0.0
 11
-116.994891966757
 21
49.60371527358459
 31
0.0
  0
LINE
  5
DA
330
1F
100
AcDbEntity
  8
0
  6
Continuous
 62
     7
100
AcDbLine
 10
-109.872298096815
 20
48.1037152735846
 30
0.0
 11
-114.382549715202
 21
48.1037152735846
 31
0.0
  0
LINE
  5
DB
330
1F
100
AcDbEntity
  8
0
  6
Continuous
 62
     7
100
AcDbLine
 10
-109.872298096815
 20
46.8537152735846
 30
0.0
 11
-111.184798096815
 21
46.8537152735846
 31
0.0
  0
LINE
  5
DC
330
1F
100
AcDbEntity
  8
0
  6
Continuous
 62
     7
100
AcDbLine
 10
-117.559798096815
 20
51.0137152735844
 30
0.0
 11
-119.240170096815
 21
49.60371527358459
 31
0.0
  0
LINE
  5
DD
330
1F
100
AcDbEntity
  8
0
  6
Continuous
 62
     7
100
AcDbLine
 10
-119.434798096815
 20
46.8537152735846
 30
0.0
 11
-119.434798096815
 21
44.77891212397839
 31
0.0
  0
LINE
  5
DE
330
1F
100
AcDbEntity
  8
0
  6
Continuous
 62
     7
100
AcDbLine
 10
-120.444674096815
 20
49.23312527358459
 30
0.0
 11
-120.747298096815
 21
48.1037152735846
 31
0.0
  0
LINE
  5
DF
330
1F
100
AcDbEntity
  8
0
  6
Continuous
 62
     7
100
AcDbLine
 10
-120.747298096815
 20
48.1037152735846
 30
0.0
 11
-120.747298096815
 21
46.8537152735846
 31
0.0
  0
LINE
  5
E0
330
1F
100
AcDbEntity
  8
1
  6
Continuous
 62
     7
100
AcDbLine
 10
-117.559798096815
 20
51.0137152735844
 30
0.0
 11
-116.082719847359
 21
51.0137152735844
 31
0.0
  0
LINE
  5
E1
330
1F
100
AcDbEntity
  8
1
  6
DASH_CENTER
 62
     7
100
AcDbLine
 10
-114.600472615883
 20
49.5111955885453
 30
0.0
 11
-117.361457247554
 21
49.5111955885453
 31
0.0
  0
LINE
  5
E2
330
1F
100
AcDbEntity
  8
0
  6
Continuous
 62
     7
100
AcDbLine
 10
-117.559798096815
 20
51.4796995255531
 30
0.0
 11
-117.559798096815
 21
51.0137152735844
 31
0.0
  0
LINE
  5
E3
330
1F
100
AcDbEntity
  8
0
  6
Continuous
 62
     7
100
AcDbLine
 10
-113.059798096815
 20
51.4796995255531
 30
0.0
 11
-113.059798096815
 21
51.0137152735844
 31
0.0
  0
LINE
  5
E4
330
1F
100
AcDbEntity
  8
1
  6
Continuous
 62
     7
100
AcDbLine
 10
-114.536876346272
 20
51.0137152735844
 30
0.0
 11
-113.059798096815
 21
51.0137152735844
 31
0.0
  0
LINE
  5
E5
330
1F
100
AcDbEntity
  8
0
  6
Continuous
 62
     7
100
AcDbLine
 10
-111.184798096815
 20
46.8537152735846
 30
0.0
 11
-119.434798096815
 21
46.8537152735846
 31
0.0
  0
LINE
  5
E6
330
1F
100
AcDbEntity
  8
0
  6
Continuous
 62
     7
100
AcDbLine
 10
-119.434798096815
 20
46.8537152735846
 30
0.0
 11
-120.747298096815
 21
46.8537152735846
 31
0.0
  0
LINE
  5
E7
330
1F
100
AcDbEntity
  8
DRG
  6
Continuous
 62
     7
100
AcDbLine
 10
-119.444798096815
 20
46.8537152735846
 30
0.0
 11
-120.427908333036
 21
46.8537152735846
 31
0.0
  0
LINE
  5
E8
330
1F
100
AcDbEntity
  8
DRG2
  6
Continuous
 62
     7
100
AcDbLine
 10
-119.509805970831
 20
46.57811684838779
 30
0.0
 11
-119.509805970831
 21
46.8537152735846
 31
0.0
  0
LINE
  5
E9
330
1F
100
AcDbEntity
  8
CRS
  6
DASH_CENTER
 62
     7
100
AcDbLine
 10
-119.765703608626
 20
46.4813911790965
 30
0.0
 11
-119.765703608626
 21
46.8936634625611
 31
0.0
  0
LINE
  5
EA
330
1F
100
AcDbEntity
  8
DRG2
  6
Continuous
 62
     7
100
AcDbLine
 10
-119.54916030154
 20
46.53878613972639
 30
0.0
 11
-119.509805970831
 21
46.57811684838779
 31
0.0
  0
LINE
  5
EB
330
1F
100
AcDbEntity
  8
DRG2
  6
Continuous
 62
     7
100
AcDbLine
 10
-120.021601246422
 20
46.8537152735846
 30
0.0
 11
-120.021601246422
 21
46.57811684838779
 31
0.0
  0
LINE
  5
EC
330
1F
100
AcDbEntity
  8
DRG2
  6
Continuous
 62
     7
100
AcDbLine
 10
-120.021601246422
 20
46.57811684838779
 30
0.0
 11
-119.982246915713
 21
46.53878613972639
 31
0.0
  0
LINE
  5
ED
330
1F
100
AcDbEntity
  8
DRG2
  6
Continuous
 62
     7
100
AcDbLine
 10
-120.021601246422
 20
46.57811684838779
 30
0.0
 11
-119.509805970831
 21
46.57811684838779
 31
0.0
  0
LINE
  5
EE
330
1F
100
AcDbEntity
  8
DRG2
  6
Continuous
 62
     7
100
AcDbLine
 10
-119.982246915713
 20
46.53878613972639
 30
0.0
 11
-119.54916030154
 21
46.53878613972639
 31
0.0
  0
LINE
  5
EF
330
1F
100
AcDbEntity
  8
DRG
  6
Continuous
 62
     7
100
AcDbLine
 10
-110.191687860595
 20
46.8537152735846
 30
0.0
 11
-111.174798096815
 21
46.8537152735846
 31
0.0
  0
LINE
  5
F0
330
1F
100
AcDbEntity
  8
DRG2
  6
Continuous
 62
     7
100
AcDbLine
 10
-110.597994947209
 20
46.57811684838779
 30
0.0
 11
-110.597994947209
 21
46.8537152735846
 31
0.0
  0
LINE
  5
F1
330
1F
100
AcDbEntity
  8
DRG2
  6
Continuous
 62
     7
100
AcDbLine
 10
-111.1097902228
 20
46.8537152735846
 30
0.0
 11
-111.1097902228
 21
46.57811684838779
 31
0.0
  0
LINE
  5
F2
330
1F
100
AcDbEntity
  8
DRG2
  6
Continuous
 62
     7
100
AcDbLine
 10
-111.070435892091
 20
46.53878613972639
 30
0.0
 11
-110.637349277918
 21
46.53878613972639
 31
0.0
  0
LINE
  5
F3
330
1F
100
AcDbEntity
  8
CRS
  6
DASH_CENTER
 62
     7
100
AcDbLine
 10
-110.853892585004
 20
46.4813911790965
 30
0.0
 11
-110.853892585004
 21
46.8936634625611
 31
0.0
  0
LINE
  5
F4
330
1F
100
AcDbEntity
  8
DRG2
  6
Continuous
 62
     7
100
AcDbLine
 10
-111.1097902228
 20
46.57811684838779
 30
0.0
 11
-111.070435892091
 21
46.53878613972639
 31
0.0
  0
LINE
  5
F5
330
1F
100
AcDbEntity
  8
DRG2
  6
Continuous
 62
     7
100
AcDbLine
 10
-110.637349277918
 20
46.53878613972639
 30
0.0
 11
-110.597994947209
 21
46.57811684838779
 31
0.0
  0
LINE
  5
F6
330
1F
100
AcDbEntity
  8
DRG2
  6
Continuous
 62
     7
100
AcDbLine
 10
-111.1097902228
 20
46.57811684838779
 30
0.0
 11
-110.597994947209
 21
46.57811684838779
 31
0.0
  0
LINE
  5
F7
330
1F
100
AcDbEntity
  8
1
  6
Continuous
 62
     7
100
AcDbLine
 10
-80.62876238908729
 20
50.99956594358429
 30
0.0
 11
-81.10044488781928
 21
50.95441505190149
 31
0.0
  0
LINE
  5
F8
330
1F
100
AcDbEntity
  8
1
  6
Continuous
 62
     7
100
AcDbLine
 10
-81.10044488781928
 20
47.6697168352672
 30
0.0
 11
-80.62876238908729
 21
47.6245659435843
 31
0.0
  0
LINE
  5
F9
330
1F
100
AcDbEntity
  8
1
  6
Continuous
 62
     7
100
AcDbLine
 10
-80.62876238908729
 20
47.6245659435843
 30
0.0
 11
-80.70952272940698
 21
47.6245659435843
 31
0.0
  0
LINE
  5
FA
330
1F
100
AcDbEntity
  8
1
  6
Continuous
 62
     7
100
AcDbLine
 10
-83.1287623890873
 20
50.1533689898243
 30
0.0
 11
-83.1287623890873
 21
49.8435659435843
 31
0.0
  0
LINE
  5
FB
330
1F
100
AcDbEntity
  8
1
  6
Continuous
 62
     7
100
AcDbLine
 10
-81.1287623890873
 20
48.2505137477979
 30
0.0
 11
-81.1287623890873
 21
47.7008744138206
 31
0.0
  0
LINE
  5
FC
330
1F
100
AcDbEntity
  8
1
  6
Continuous
 62
     7
100
AcDbLine
 10
-83.005845433129
 20
50.27835163232929
 30
0.0
 11
-81.19013434107049
 21
50.3111283201385
 31
0.0
  0
LINE
  5
FD
330
1F
100
AcDbEntity
  8
1
  6
Continuous
 62
     7
100
AcDbLine
 10
-81.1287623890873
 20
50.92325747334809
 30
0.0
 11
-81.1287623890873
 21
50.37361813937069
 31
0.0
  0
LINE
  5
FE
330
1F
100
AcDbEntity
  8
1
  6
DASH_CENTER
 62
     7
100
AcDbLine
 10
-83.2740597755639
 20
49.31206594358429
 30
0.0
 11
-81.7267623890872
 21
49.31206594358429
 31
0.0
  0
LINE
  5
FF
330
1F
100
AcDbEntity
  8
1
  6
Continuous
 62
     7
100
AcDbLine
 10
-83.005845433129
 20
48.3457802548393
 30
0.0
 11
-81.19013434107049
 21
48.3130035670301
 31
0.0
  0
LINE
  5
100
330
1F
100
AcDbEntity
  8
1
  6
Continuous
 62
     7
100
AcDbLine
 10
-83.1287623890873
 20
49.8435659435843
 30
0.0
 11
-83.1287623890873
 21
48.7805659435843
 31
0.0
  0
LINE
  5
101
330
1F
100
AcDbEntity
  8
1
  6
Continuous
 62
     7
100
AcDbLine
 10
-83.1287623890873
 20
48.7805659435843
 30
0.0
 11
-83.1287623890873
 21
48.47076289734429
 31
0.0
  0
LINE
  5
102
330
1F
100
AcDbEntity
  8
1
  6
DASH_CENTER
 62
     7
100
AcDbLine
 10
-81.7267623890872
 20
49.31206594358429
 30
0.0
 11
-80.46155977556398
 21
49.31206594358429
 31
0.0
  0
LINE
  5
103
330
1F
100
AcDbEntity
  8
1
  6
Continuous
 62
     7
100
AcDbLine
 10
-109.622298096815
 20
41.3927824790174
 30
0.0
 11
-109.622298096815
 21
42.7047824790175
 31
0.0
  0
LINE
  5
104
102
{ACAD_REACTORS
330
6A7
102
}
330
1F
100
AcDbEntity
  8
0
  6
Continuous
 62
     2
100
AcDbLine
 10
-85.4569014783249
 20
-11.9725807461421
 30
0.0
 11
-85.78830153082788
 21
-12.4789537924671
 31
0.0
  0
LINE
  5
105
102
{ACAD_REACTORS
330
6A7
102
}
330
1F
100
AcDbEntity
  8
0
  6
Continuous
 62
     2
100
AcDbLine
 10
-85.6459503595559
 20
-12.5474721944601
 30
0.0
 11
-85.4569014783249
 21
-11.9725807461421
 31
0.0
  0
LINE
  5
106
102
{ACAD_REACTORS
330
6A7
102
}
330
1F
100
AcDbEntity
  8
0
  6
Continuous
 62
     2
100
AcDbLine
 10
-85.78830153082788
 20
-12.4789537924671
 30
0.0
 11
-85.6459503595559
 21
-12.5474721944601
 31
0.0
  0
LINE
  5
107
330
1F
100
AcDbEntity
  8
0
  6
Continuous
 62
     2
100
AcDbLine
 10
-130.924027457391
 20
-3.26562500000004
 30
0.0
 11
-118.492847240036
 21
-3.26562500000004
 31
0.0
  0
LINE
  5
108
330
1F
100
AcDbEntity
  8
1
  6
Continuous
 62
     7
100
AcDbLine
 10
-115.562466625812
 20
5.13981403859019
 30
0.0
 11
-116.039583171407
 21
3.96101062193918
 31
0.0
  0
LINE
  5
109
330
1F
100
AcDbEntity
  8
1
  6
Continuous
 62
     7
100
AcDbLine
 10
-115.057129567817
 20
5.13981403859019
 30
0.0
 11
-114.572298096815
 21
3.93981403859018
 31
0.0
  0
LINE
  5
10A
330
1F
100
AcDbEntity
  8
1
  6
Continuous
 62
     7
100
AcDbLine
 10
-115.562466625812
 20
5.13981403859019
 30
0.0
 11
-115.057129567817
 21
5.13981403859019
 31
0.0
  0
LINE
  5
10B
330
1F
100
AcDbEntity
  8
0
  6
Continuous
 62
     4
100
AcDbLine
 10
-115.591298096815
 20
3.34606403859017
 30
0.0
 11
-115.028798096815
 21
3.34606403859017
 31
0.0
  0
LINE
  5
10C
330
1F
100
AcDbEntity
  8
0
  6
Continuous
 62
     4
100
AcDbLine
 10
-115.028798096815
 20
3.14606403859016
 30
0.0
 11
-115.391298096815
 21
3.14606403859016
 31
0.0
  0
LINE
  5
10D
330
1F
100
AcDbEntity
  8
0
  6
Continuous
 62
     4
100
AcDbLine
 10
-115.391298096815
 20
3.14606403859016
 30
0.0
 11
-115.391298096815
 21
2.88356403859016
 31
0.0
  0
LINE
  5
10E
330
1F
100
AcDbEntity
  8
0
  6
Continuous
 62
     4
100
AcDbLine
 10
-115.391298096815
 20
2.88356403859016
 30
0.0
 11
-115.202534922942
 21
2.88356403859016
 31
0.0
  0
LINE
  5
10F
330
1F
100
AcDbEntity
  8
0
  6
Continuous
 62
     4
100
AcDbLine
 10
-115.202534922942
 20
2.68356403859016
 30
0.0
 11
-115.391298096815
 21
2.68356403859016
 31
0.0
  0
LINE
  5
110
330
1F
100
AcDbEntity
  8
0
  6
Continuous
 62
     4
100
AcDbLine
 10
-115.391298096815
 20
2.68356403859016
 30
0.0
 11
-115.391298096815
 21
2.14606403859016
 31
0.0
  0
LINE
  5
111
330
1F
100
AcDbEntity
  8
0
  6
Continuous
 62
     4
100
AcDbLine
 10
-115.391298096815
 20
2.14606403859016
 30
0.0
 11
-115.591298096815
 21
2.14606403859016
 31
0.0
  0
LINE
  5
112
330
1F
100
AcDbEntity
  8
0
  6
Continuous
 62
     4
100
AcDbLine
 10
-115.591298096815
 20
2.14606403859016
 30
0.0
 11
-115.591298096815
 21
3.34606403859017
 31
0.0
  0
LINE
  5
113
330
1F
100
AcDbEntity
  8
0
  6
Continuous
 62
     4
100
AcDbLine
 10
-115.491298096815
 20
3.24606403859017
 30
0.0
 11
-115.491298096815
 21
2.84606403859016
 31
0.0
  0
LINE
  5
114
330
1F
100
AcDbEntity
  8
0
  6
Continuous
 62
     4
100
AcDbLine
 10
-115.491298096815
 20
2.20379906550916
 30
0.0
 11
-115.391298096815
 21
2.14606403859016
 31
0.0
  0
LINE
  5
115
330
1F
100
AcDbEntity
  8
0
  6
Continuous
 62
     4
100
AcDbLine
 10
-115.491298096815
 20
2.20379906550916
 30
0.0
 11
-115.591298096815
 21
2.14606403859016
 31
0.0
  0
LINE
  5
116
330
1F
100
AcDbEntity
  8
0
  6
Continuous
 62
     4
100
AcDbLine
 10
-115.491298096815
 20
2.84606403859016
 30
0.0
 11
-115.491298096815
 21
2.20379906550916
 31
0.0
  0
LINE
  5
117
330
1F
100
AcDbEntity
  8
0
  6
Continuous
 62
     4
100
AcDbLine
 10
-115.028798096815
 20
3.34606403859017
 30
0.0
 11
-115.086533123733
 21
3.24606403859017
 31
0.0
  0
LINE
  5
118
330
1F
100
AcDbEntity
  8
0
  6
Continuous
 62
     4
100
AcDbLine
 10
-115.086533123733
 20
3.24606403859017
 30
0.0
 11
-115.491298096815
 21
3.24606403859017
 31
0.0
  0
LINE
  5
119
330
1F
100
AcDbEntity
  8
0
  6
Continuous
 62
     4
100
AcDbLine
 10
-115.086533123733
 20
3.24606403859017
 30
0.0
 11
-115.028798096815
 21
3.14606403859016
 31
0.0
  0
LINE
  5
11A
330
1F
100
AcDbEntity
  8
0
  6
Continuous
 62
     4
100
AcDbLine
 10
-115.202534922942
 20
2.88356403859016
 30
0.0
 11
-115.260269949861
 21
2.78356403859016
 31
0.0
  0
LINE
  5
11B
330
1F
100
AcDbEntity
  8
0
  6
Continuous
 62
     4
100
AcDbLine
 10
-115.260269949861
 20
2.78356403859016
 30
0.0
 11
-115.491298096815
 21
2.78356403859016
 31
0.0
  0
LINE
  5
11C
330
1F
100
AcDbEntity
  8
0
  6
Continuous
 62
     4
100
AcDbLine
 10
-115.260269949861
 20
2.78356403859016
 30
0.0
 11
-115.202534922942
 21
2.68356403859016
 31
0.0
  0
LINE
  5
11D
330
1F
100
AcDbEntity
  8
0
  6
Continuous
 62
     4
100
AcDbLine
 10
-115.028798096815
 20
3.34606403859017
 30
0.0
 11
-115.028798096815
 21
3.14606403859016
 31
0.0
  0
LINE
  5
11E
330
1F
100
AcDbEntity
  8
0
  6
Continuous
 62
     4
100
AcDbLine
 10
-115.202534922942
 20
2.88356403859016
 30
0.0
 11
-115.202534922942
 21
2.68356403859016
 31
0.0
  0
LINE
  5
11F
330
1F
100
AcDbEntity
  8
0
  6
Continuous
 62
     7
100
AcDbLine
 10
-114.971298096814
 20
3.93981403859018
 30
0.0
 11
-114.572298096815
 21
3.93981403859018
 31
0.0
  0
LINE
  5
120
330
1F
100
AcDbEntity
  8
0
  6
Continuous
 62
     7
100
AcDbLine
 10
-116.047298096815
 20
3.93981403859018
 30
0.0
 11
-115.648298096815
 21
3.93981403859018
 31
0.0
  0
LINE
  5
121
330
1F
100
AcDbEntity
  8
0
  6
Continuous
 62
     7
100
AcDbLine
 10
-114.971298096814
 20
3.93981403859018
 30
0.0
 11
-115.309798096815
 21
4.69553496882318
 31
0.0
  0
LINE
  5
122
330
1F
100
AcDbEntity
  8
0
  6
Continuous
 62
     7
100
AcDbLine
 10
-115.648298096815
 20
3.93981403859018
 30
0.0
 11
-115.309798096815
 21
4.69553496882318
 31
0.0
  0
LINE
  5
123
330
1F
100
AcDbEntity
  8
0
  6
Continuous
 62
     4
100
AcDbLine
 10
-115.700298096815
 20
1.15306403859014
 30
0.0
 11
-115.700298096815
 21
0.75306403859014
 31
0.0
  0
LINE
  5
124
330
1F
100
AcDbEntity
  8
0
  6
Continuous
 62
     4
100
AcDbLine
 10
-115.500298096815
 20
1.15306403859014
 30
0.0
 11
-115.500298096815
 21
0.75306403859014
 31
0.0
  0
LINE
  5
125
330
1F
100
AcDbEntity
  8
0
  6
Continuous
 62
     4
100
AcDbLine
 10
-115.600298096814
 20
1.15406403859014
 30
0.0
 11
-115.600298096814
 21
0.75206403859014
 31
0.0
  0
LINE
  5
126
330
1F
100
AcDbEntity
  8
0
  6
Continuous
 62
     4
100
AcDbLine
 10
-115.110955967895
 20
1.15306403859014
 30
0.0
 11
-114.910955967895
 21
1.15306403859014
 31
0.0
  0
LINE
  5
127
330
1F
100
AcDbEntity
  8
0
  6
Continuous
 62
     4
100
AcDbLine
 10
-115.110955967895
 20
0.75306403859014
 30
0.0
 11
-114.910955967895
 21
0.75306403859014
 31
0.0
  0
LINE
  5
128
330
1F
100
AcDbEntity
  8
0
  6
Continuous
 62
     4
100
AcDbLine
 10
-115.110955967895
 20
1.15306403859014
 30
0.0
 11
-115.015855457443
 21
1.20797034389935
 31
0.0
  0
LINE
  5
129
330
1F
100
AcDbEntity
  8
0
  6
Continuous
 62
     4
100
AcDbLine
 10
-115.015855457443
 20
1.20797034389935
 30
0.0
 11
-114.910955967895
 21
1.15306403859014
 31
0.0
  0
LINE
  5
12A
330
1F
100
AcDbEntity
  8
0
  6
Continuous
 62
     4
100
AcDbLine
 10
-115.015855457443
 20
0.69815773328084
 30
0.0
 11
-114.910955967895
 21
0.75306403859014
 31
0.0
  0
LINE
  5
12B
330
1F
100
AcDbEntity
  8
0
  6
Continuous
 62
     4
100
AcDbLine
 10
-115.110955967895
 20
0.75306403859014
 30
0.0
 11
-115.015855457443
 21
0.69815773328084
 31
0.0
  0
LINE
  5
12C
330
1F
100
AcDbEntity
  8
1
  6
DASH_CENTER
 62
     7
100
AcDbLine
 10
-72.7568726253078
 20
14.8940295822672
 30
0.0
 11
-72.7568726253078
 21
11.7343750000001
 31
0.0
  0
LINE
  5
12D
330
1F
100
AcDbEntity
  8
1
  6
DASH_CENTER
 62
     7
100
AcDbLine
 10
-72.7568726253078
 20
21.9677824790172
 30
0.0
 11
-72.7568726253078
 21
11.7343750000001
 31
0.0
  0
LINE
  5
12E
330
1F
100
AcDbEntity
  8
1
  6
DASH_CENTER
 62
     7
100
AcDbLine
 10
-72.7568726253078
 20
13.9867659475922
 30
0.0
 11
-72.7568726253078
 21
11.7343750000001
 31
0.0
  0
LINE
  5
12F
330
1F
100
AcDbEntity
  8
1
  6
DASH_CENTER
 62
     7
100
AcDbLine
 10
-72.7568726253078
 20
9.64278247901711
 30
0.0
 11
-72.7568726253078
 21
11.7343750000001
 31
0.0
  0
LINE
  5
130
330
1F
100
AcDbEntity
  8
1
  6
DASH_CENTER
 62
     7
100
AcDbLine
 10
-72.7568726253078
 20
9.64278247901711
 30
0.0
 11
-72.7568726253078
 21
11.7343750000001
 31
0.0
  0
LINE
  5
131
330
1F
100
AcDbEntity
  8
1
  6
DASH_CENTER
 62
     2
100
AcDbLine
 10
-72.7568726253078
 20
23.8307434925643
 30
0.0
 11
-72.7568726253078
 21
11.7343750000001
 31
0.0
  0
LINE
  5
132
330
1F
100
AcDbEntity
  8
1
  6
Continuous
 62
     7
100
AcDbLine
 10
-66.0693726253077
 20
44.5797824790175
 30
0.0
 11
-71.75687262530779
 21
44.5797824790175
 31
0.0
  0
LINE
  5
133
330
1F
100
AcDbEntity
  8
0
  6
Continuous
 62
     7
100
AcDbLine
 10
-71.75687262530779
 20
44.5797824790175
 30
0.0
 11
-69.7087026253078
 21
44.5797824790175
 31
0.0
  0
LINE
  5
134
330
1F
100
AcDbEntity
  8
1
  6
Continuous
 62
     7
100
AcDbLine
 10
-70.6118726253078
 20
42.7047824790175
 30
0.0
 11
-70.2618726253078
 21
42.7047824790175
 31
0.0
  0
LINE
  5
135
330
1F
100
AcDbEntity
  8
1
  6
Continuous
 62
     7
100
AcDbLine
 10
-64.5693726253077
 20
41.9547824790175
 30
0.0
 11
-64.5693726253077
 21
43.0797824790175
 31
0.0
  0
LINE
  5
136
330
1F
100
AcDbEntity
  8
1
  6
Continuous
 62
     7
100
AcDbLine
 10
-64.84462775391668
 20
41.7047824790175
 30
0.0
 11
-64.8193726253077
 21
41.7047824790175
 31
0.0
  0
LINE
  5
137
330
1F
100
AcDbEntity
  8
1
  6
Continuous
 62
     7
100
AcDbLine
 10
-71.7218726253078
 20
42.7047824790175
 30
0.0
 11
-72.7568726253078
 21
42.7047824790175
 31
0.0
  0
LINE
  5
138
330
1F
100
AcDbEntity
  8
1
  6
Continuous
 62
     7
100
AcDbLine
 10
-71.75687262530779
 20
44.5797824790175
 30
0.0
 11
-72.7568726253078
 21
44.5797824790175
 31
0.0
  0
LINE
  5
139
330
1F
100
AcDbEntity
  8
1
  6
Continuous
 62
     3
100
AcDbLine
 10
-71.7218726253078
 20
42.7047824790175
 30
0.0
 11
-71.7518726253078
 21
42.73478247901739
 31
0.0
  0
LINE
  5
13A
330
1F
100
AcDbEntity
  8
1
  6
Continuous
 62
     7
100
AcDbLine
 10
-72.7568726253078
 20
44.5797824790175
 30
0.0
 11
-75.3528726253078
 21
44.5797824790175
 31
0.0
  0
LINE
  5
13B
330
1F
100
AcDbEntity
  8
1
  6
Continuous
 62
     7
100
AcDbLine
 10
-71.7218726253078
 20
42.7047824790175
 30
0.0
 11
-70.6118726253078
 21
42.7047824790175
 31
0.0
  0
LINE
  5
13C
330
1F
100
AcDbEntity
  8
1
  6
Continuous
 62
     7
100
AcDbLine
 10
-66.0693726253077
 20
42.7047824790175
 30
0.0
 11
-70.2618726253078
 21
42.7047824790175
 31
0.0
  0
LINE
  5
13D
330
1F
100
AcDbEntity
  8
1
  6
Continuous
 62
     7
100
AcDbLine
 10
-63.7568726253077
 20
-18.6406250000002
 30
0.0
 11
-63.7568726253077
 21
-16.6031894328342
 31
0.0
  0
LINE
  5
13E
330
1F
100
AcDbEntity
  8
1
  6
Continuous
 62
     7
100
AcDbLine
 10
-62.5304825981467
 20
8.8767212317781
 30
0.0
 11
-60.9889109343667
 21
8.8767212317781
 31
0.0
  0
LINE
  5
13F
330
1F
100
AcDbEntity
  8
1
  6
Continuous
 62
     7
100
AcDbLine
 10
-60.9889109343667
 20
12.3027780237781
 30
0.0
 11
-69.6519648506378
 21
12.3027780237781
 31
0.0
  0
LINE
  5
140
330
1F
100
AcDbEntity
  8
1
  6
DASH_CENTER
 62
     7
100
AcDbLine
 10
-72.7568726253078
 20
11.7343750000001
 30
0.0
 11
-72.7568726253078
 21
10.5343750000001
 31
0.0
  0
LINE
  5
141
330
1F
100
AcDbEntity
  8
1
  6
DASH_CENTER
 62
     7
100
AcDbLine
 10
-72.7568726253078
 20
10.1908357449921
 30
0.0
 11
-72.7568726253078
 21
10.5343750000001
 31
0.0
  0
LINE
  5
142
330
1F
100
AcDbEntity
  8
1
  6
Continuous
 62
     7
100
AcDbLine
 10
-61.00687262530769
 20
-2.14062500000002
 30
0.0
 11
-61.00687262530769
 21
-3.46475464496104
 31
0.0
  0
LINE
  5
143
330
1F
100
AcDbEntity
  8
1
  6
Continuous
 62
     7
100
AcDbLine
 10
-62.62792879114869
 20
-9.93046721902111
 30
0.0
 11
-64.3599795987174
 21
-11.6625180265904
 31
0.0
  0
LINE
  5
144
330
1F
100
AcDbEntity
  8
1
  6
Continuous
 62
     7
100
AcDbLine
 10
-69.7091329989617
 20
4.22187500000005
 30
0.0
 11
-71.8520944570765
 21
4.22187499999947
 31
0.0
  0
LINE
  5
145
330
1F
100
AcDbEntity
  8
1
  6
Continuous
 62
     7
100
AcDbLine
 10
-69.66156794703178
 20
2.74687500000003
 30
0.0
 11
-62.5498442143057
 21
2.74687500000003
 31
0.0
  0
LINE
  5
146
330
1F
100
AcDbEntity
  8
1
  6
Continuous
 62
     7
100
AcDbLine
 10
-69.4822171548947
 20
-8.77812500000009
 30
0.0
 11
-64.35272855907469
 21
-8.77812500000009
 31
0.0
  0
LINE
  5
147
330
1F
100
AcDbEntity
  8
1
  6
Continuous
 62
     7
100
AcDbLine
 10
-62.5445620240783
 20
-7.17706524619039
 30
0.0
 11
-63.99917516848139
 21
-8.63167839059333
 31
0.0
  0
LINE
  5
148
330
1F
100
AcDbEntity
  8
1
  6
Continuous
 62
     7
100
AcDbLine
 10
-69.4346521029647
 20
-10.2531250000001
 30
0.0
 11
-71.10143708743348
 21
-10.2531249999995
 31
0.0
  0
LINE
  5
149
330
1F
100
AcDbEntity
  8
1
  6
DASH_CENTER
 62
     7
100
AcDbLine
 10
-72.7568726253078
 20
11.7343750000001
 30
0.0
 11
-72.7568726253078
 21
8.7730867216481
 31
0.0
  0
LINE
  5
14A
330
1F
100
AcDbEntity
  8
1
  6
DASH_CENTER
 62
     7
100
AcDbLine
 10
-72.7568726253078
 20
11.7343750000001
 30
0.0
 11
-72.7568726253078
 21
-3.26562500000004
 31
0.0
  0
LINE
  5
14B
330
1F
100
AcDbEntity
  8
1
  6
Continuous
 62
     7
100
AcDbLine
 10
-70.3340378084345
 20
4.83596724597675
 30
0.0
 11
-70.3862372824425
 21
7.82647310906279
 31
0.0
  0
LINE
  5
14C
330
1F
100
AcDbEntity
  8
1
  6
Continuous
 62
     7
100
AcDbLine
 10
-64.3105439110087
 20
4.22187500000005
 30
0.0
 11
-69.7091329989617
 21
4.22187500000005
 31
0.0
  0
LINE
  5
14D
330
1F
100
AcDbEntity
  8
1
  6
Continuous
 62
     7
100
AcDbLine
 10
-71.8520944570765
 20
2.74687500000061
 30
0.0
 11
-69.66156794703178
 21
2.74687500000003
 31
0.0
  0
LINE
  5
14E
330
1F
100
AcDbEntity
  8
1
  6
Continuous
 62
     7
100
AcDbLine
 10
-70.1071219643675
 20
-8.16403275402343
 30
0.0
 11
-70.28647275650448
 21
2.11096724597671
 31
0.0
  0
LINE
  5
14F
330
1F
100
AcDbEntity
  8
1
  6
Continuous
 62
     7
100
AcDbLine
 10
-71.10143708743348
 20
-8.77812500000067
 30
0.0
 11
-69.4822171548947
 21
-8.77812500000009
 31
0.0
  0
LINE
  5
150
330
1F
100
AcDbEntity
  8
1
  6
Continuous
 62
     7
100
AcDbLine
 10
-66.9310239532257
 20
-10.2531250000001
 30
0.0
 11
-69.4346521029647
 21
-10.2531250000001
 31
0.0
  0
LINE
  5
151
330
1F
100
AcDbEntity
  8
1
  6
Continuous
 62
     7
100
AcDbLine
 10
-70.0397859457665
 20
-12.0217106760184
 30
0.0
 11
-70.0595569124375
 21
-10.8890327540234
 31
0.0
  0
LINE
  5
152
330
1F
100
AcDbEntity
  8
1
  6
Continuous
 62
     7
100
AcDbLine
 10
-55.9318726253086
 20
29.7444211113043
 30
0.0
 11
-55.9318726253086
 21
24.8790520038863
 31
0.0
  0
LINE
  5
153
330
1F
100
AcDbEntity
  8
1
  6
Continuous
 62
     7
100
AcDbLine
 10
-72.7568726253078
 20
41.3848967698735
 30
0.0
 11
-69.1692756858612
 21
41.38489676987399
 31
0.0
  0
LINE
  5
154
330
1F
100
AcDbEntity
  8
1
  6
Continuous
 62
     7
100
AcDbLine
 10
-68.6761971596349
 20
40.1120986519162
 30
0.0
 11
-57.2282066843858
 21
32.2137372842031
 31
0.0
  0
LINE
  5
155
330
1F
100
AcDbEntity
  8
1
  6
Continuous
 62
     7
100
AcDbLine
 10
-53.2568726253076
 20
24.2943750000003
 30
0.0
 11
-53.2568726253076
 21
22.7943750000002
 31
0.0
  0
LINE
  5
156
330
1F
100
AcDbEntity
  8
1
  6
Continuous
 62
     7
100
AcDbLine
 10
-55.4318726253086
 20
24.2943750000003
 30
0.0
 11
-53.2568726253076
 21
24.2943750000003
 31
0.0
  0
LINE
  5
157
330
1F
100
AcDbEntity
  8
1
  6
Continuous
 62
     7
100
AcDbLine
 10
-67.0693726253077
 20
41.3927824790174
 30
0.0
 11
-67.0693726253077
 21
42.7047824790175
 31
0.0
  0
LINE
  5
158
330
1F
100
AcDbEntity
  8
1
  6
Continuous
 62
     7
100
AcDbLine
 10
-67.0693726253077
 20
41.3927824790174
 30
0.0
 11
-69.0808249948818
 21
41.3927824790174
 31
0.0
  0
LINE
  5
159
330
1F
100
AcDbEntity
  8
1
  6
Continuous
 62
     7
100
AcDbLine
 10
-72.7568726253078
 20
24.2943750000003
 30
0.0
 11
-55.4318726253086
 21
24.2943750000003
 31
0.0
  0
LINE
  5
15A
330
1F
100
AcDbEntity
  8
1
  6
Continuous
 62
     7
100
AcDbLine
 10
-72.7568726253078
 20
22.7943750000002
 30
0.0
 11
-53.2568726253076
 21
22.7943750000002
 31
0.0
  0
LINE
  5
15B
330
1F
100
AcDbEntity
  8
1
  6
Continuous
 62
     7
100
AcDbLine
 10
-69.9713726253078
 20
19.7074753531092
 30
0.0
 11
-70.8463726253078
 21
19.7074753531092
 31
0.0
  0
LINE
  5
15C
330
1F
100
AcDbEntity
  8
1
  6
Continuous
 62
     7
100
AcDbLine
 10
-69.9713726253078
 20
19.5880085687392
 30
0.0
 11
-70.8463726253078
 21
19.5880085687392
 31
0.0
  0
LINE
  5
15D
330
1F
100
AcDbEntity
  8
1
  6
Continuous
 62
     7
100
AcDbLine
 10
-69.9713726253078
 20
19.4685417843702
 30
0.0
 11
-70.8463726253078
 21
19.4685417843702
 31
0.0
  0
LINE
  5
15E
330
1F
100
AcDbEntity
  8
1
  6
Continuous
 62
     7
100
AcDbLine
 10
-70.8463726253078
 20
19.3490750000002
 30
0.0
 11
-70.8463726253078
 21
19.8593750000002
 31
0.0
  0
LINE
  5
15F
330
1F
100
AcDbEntity
  8
1
  6
Continuous
 62
     7
100
AcDbLine
 10
-70.8463726253078
 20
19.8593750000002
 30
0.0
 11
-69.9713726253078
 21
19.8593750000002
 31
0.0
  0
LINE
  5
160
330
1F
100
AcDbEntity
  8
1
  6
Continuous
 62
     7
100
AcDbLine
 10
-69.84012262530779
 20
24.8806250000003
 30
0.0
 11
-70.9776226253078
 21
24.8806250000003
 31
0.0
  0
LINE
  5
161
330
1F
100
AcDbEntity
  8
1
  6
Continuous
 62
     7
100
AcDbLine
 10
-69.9713726253078
 20
19.3490750000002
 30
0.0
 11
-70.02607262530769
 21
19.2943750000002
 31
0.0
  0
LINE
  5
162
330
1F
100
AcDbEntity
  8
1
  6
Continuous
 62
     7
100
AcDbLine
 10
-70.02607262530769
 20
19.2943750000002
 30
0.0
 11
-70.7916726253078
 21
19.2943750000002
 31
0.0
  0
LINE
  5
163
330
1F
100
AcDbEntity
  8
1
  6
Continuous
 62
     7
100
AcDbLine
 10
-70.7916726253078
 20
19.2943750000002
 30
0.0
 11
-70.8463726253078
 21
19.3490750000002
 31
0.0
  0
LINE
  5
164
330
1F
100
AcDbEntity
  8
1
  6
Continuous
 62
     7
100
AcDbLine
 10
-69.9713726253078
 20
19.8593750000002
 30
0.0
 11
-69.9713726253078
 21
19.3490750000002
 31
0.0
  0
LINE
  5
165
330
1F
100
AcDbEntity
  8
1
  6
Continuous
 62
     7
100
AcDbLine
 10
-69.9713726253078
 20
19.3490750000002
 30
0.0
 11
-70.8463726253078
 21
19.3490750000002
 31
0.0
  0
LINE
  5
166
330
1F
100
AcDbEntity
  8
1
  6
Continuous
 62
     7
100
AcDbLine
 10
-71.1666226253078
 20
24.2943750000003
 30
0.0
 11
-70.7877476253078
 21
24.2943750000003
 31
0.0
  0
LINE
  5
167
330
1F
100
AcDbEntity
  8
1
  6
Continuous
 62
     7
100
AcDbLine
 10
-70.7877476253078
 20
24.2943750000003
 30
0.0
 11
-70.02999762530779
 21
24.2943750000003
 31
0.0
  0
LINE
  5
168
330
1F
100
AcDbEntity
  8
1
  6
Continuous
 62
     7
100
AcDbLine
 10
-70.02999762530779
 20
24.2943750000003
 30
0.0
 11
-70.0299976253079
 21
24.8071250000003
 31
0.0
  0
LINE
  5
169
330
1F
100
AcDbEntity
  8
1
  6
Continuous
 62
     7
100
AcDbLine
 10
-70.7877476253078
 20
24.2943750000003
 30
0.0
 11
-70.7877476253077
 21
24.8071250000004
 31
0.0
  0
LINE
  5
16A
330
1F
100
AcDbEntity
  8
1
  6
Continuous
 62
     7
100
AcDbLine
 10
-70.02999762530779
 20
24.2943750000003
 30
0.0
 11
-69.6511226253078
 21
24.2943750000003
 31
0.0
  0
LINE
  5
16B
330
1F
100
AcDbEntity
  8
1
  6
Continuous
 62
     7
100
AcDbLine
 10
-69.6511226253078
 20
24.2943750000003
 30
0.0
 11
-69.6511226253077
 21
24.8071250000004
 31
0.0
  0
LINE
  5
16C
330
1F
100
AcDbEntity
  8
1
  6
Continuous
 62
     7
100
AcDbLine
 10
-71.1666226253079
 20
24.8071250000004
 30
0.0
 11
-71.1666226253078
 21
24.2943750000003
 31
0.0
  0
LINE
  5
16D
330
1F
100
AcDbEntity
  8
1
  6
DASH_CENTER
 62
     7
100
AcDbLine
 10
-70.4088726253078
 20
20.8437500000002
 30
0.0
 11
-70.4088726253078
 21
19.7500000000002
 31
0.0
  0
LINE
  5
16E
330
1F
100
AcDbEntity
  8
1
  6
Continuous
 62
     7
100
AcDbLine
 10
-71.0315266253077
 20
20.7343750000002
 30
0.0
 11
-69.78621862530778
 21
20.7343750000002
 31
0.0
  0
LINE
  5
16F
330
1F
100
AcDbEntity
  8
1
  6
Continuous
 62
     7
100
AcDbLine
 10
-71.0315266253077
 20
19.8593750000002
 30
0.0
 11
-69.78621862530778
 21
19.8593750000002
 31
0.0
  0
LINE
  5
170
330
1F
100
AcDbEntity
  8
1
  6
Continuous
 62
     7
100
AcDbLine
 10
-71.238598625308
 20
19.9328749999994
 30
0.0
 11
-71.238598625308
 21
20.660875000001
 31
0.0
  0
LINE
  5
171
330
1F
100
AcDbEntity
  8
1
  6
Continuous
 62
     7
100
AcDbLine
 10
-70.824023225308
 20
20.6608750000002
 30
0.0
 11
-70.824023225308
 21
19.9328750000002
 31
0.0
  0
LINE
  5
172
330
1F
100
AcDbEntity
  8
1
  6
Continuous
 62
     7
100
AcDbLine
 10
-69.9937220253081
 20
19.9328749999994
 30
0.0
 11
-69.9937220253081
 21
20.660875
 31
0.0
  0
LINE
  5
173
330
1F
100
AcDbEntity
  8
1
  6
Continuous
 62
     7
100
AcDbLine
 10
-69.57914662530749
 20
19.9328749999994
 30
0.0
 11
-69.57914662530759
 21
20.660875
 31
0.0
  0
LINE
  5
174
330
1F
100
AcDbEntity
  8
1
  6
Continuous
 62
     7
100
AcDbLine
 10
-64.8541466253075
 20
19.9328749999994
 30
0.0
 11
-64.8541466253075
 21
20.660875
 31
0.0
  0
LINE
  5
175
330
1F
100
AcDbEntity
  8
1
  6
Continuous
 62
     7
100
AcDbLine
 10
-65.2687220253075
 20
19.9328750000002
 30
0.0
 11
-65.2687220253075
 21
20.6608750000002
 31
0.0
  0
LINE
  5
176
330
1F
100
AcDbEntity
  8
1
  6
Continuous
 62
     7
100
AcDbLine
 10
-66.09902322530749
 20
20.660875000001
 30
0.0
 11
-66.09902322530749
 21
19.9328749999994
 31
0.0
  0
LINE
  5
177
330
1F
100
AcDbEntity
  8
1
  6
Continuous
 62
     7
100
AcDbLine
 10
-66.5135986253079
 20
19.9328749999994
 30
0.0
 11
-66.5135986253079
 21
20.660875000001
 31
0.0
  0
LINE
  5
178
330
1F
100
AcDbEntity
  8
1
  6
Continuous
 62
     7
100
AcDbLine
 10
-66.3065266253077
 20
19.8593750000002
 30
0.0
 11
-65.06121862530769
 21
19.8593750000002
 31
0.0
  0
LINE
  5
179
330
1F
100
AcDbEntity
  8
1
  6
Continuous
 62
     7
100
AcDbLine
 10
-66.3065266253077
 20
20.7343750000002
 30
0.0
 11
-65.06121862530769
 21
20.7343750000002
 31
0.0
  0
LINE
  5
17A
330
1F
100
AcDbEntity
  8
1
  6
DASH_CENTER
 62
     7
100
AcDbLine
 10
-65.6838726253077
 20
20.8437500000002
 30
0.0
 11
-65.6838726253077
 21
19.7500000000002
 31
0.0
  0
LINE
  5
17B
330
1F
100
AcDbEntity
  8
1
  6
Continuous
 62
     7
100
AcDbLine
 10
-66.4416226253077
 20
24.8071250000004
 30
0.0
 11
-66.4416226253077
 21
24.2943750000003
 31
0.0
  0
LINE
  5
17C
330
1F
100
AcDbEntity
  8
1
  6
Continuous
 62
     7
100
AcDbLine
 10
-64.9261226253077
 20
24.2943750000003
 30
0.0
 11
-64.92612262530758
 21
24.8071250000004
 31
0.0
  0
LINE
  5
17D
330
1F
100
AcDbEntity
  8
1
  6
Continuous
 62
     7
100
AcDbLine
 10
-66.0627476253077
 20
24.2943750000003
 30
0.0
 11
-66.0627476253076
 21
24.8071250000003
 31
0.0
  0
LINE
  5
17E
330
1F
100
AcDbEntity
  8
1
  6
Continuous
 62
     7
100
AcDbLine
 10
-65.30499762530769
 20
24.2943750000003
 30
0.0
 11
-65.3049976253078
 21
24.8071250000004
 31
0.0
  0
LINE
  5
17F
330
1F
100
AcDbEntity
  8
1
  6
Continuous
 62
     7
100
AcDbLine
 10
-66.0627476253077
 20
24.2943750000003
 30
0.0
 11
-65.30499762530769
 21
24.2943750000003
 31
0.0
  0
LINE
  5
180
330
1F
100
AcDbEntity
  8
1
  6
Continuous
 62
     7
100
AcDbLine
 10
-65.2463726253077
 20
19.3490750000002
 30
0.0
 11
-66.1213726253077
 21
19.3490750000002
 31
0.0
  0
LINE
  5
181
330
1F
100
AcDbEntity
  8
1
  6
Continuous
 62
     7
100
AcDbLine
 10
-65.2463726253077
 20
19.8593750000002
 30
0.0
 11
-65.2463726253077
 21
19.3490750000002
 31
0.0
  0
LINE
  5
182
330
1F
100
AcDbEntity
  8
1
  6
Continuous
 62
     7
100
AcDbLine
 10
-66.0666726253077
 20
19.2943750000002
 30
0.0
 11
-66.1213726253077
 21
19.3490750000002
 31
0.0
  0
LINE
  5
183
330
1F
100
AcDbEntity
  8
1
  6
Continuous
 62
     7
100
AcDbLine
 10
-65.3010726253077
 20
19.2943750000002
 30
0.0
 11
-66.0666726253077
 21
19.2943750000002
 31
0.0
  0
LINE
  5
184
330
1F
100
AcDbEntity
  8
1
  6
Continuous
 62
     7
100
AcDbLine
 10
-65.2463726253077
 20
19.3490750000002
 30
0.0
 11
-65.3010726253077
 21
19.2943750000002
 31
0.0
  0
LINE
  5
185
330
1F
100
AcDbEntity
  8
1
  6
Continuous
 62
     7
100
AcDbLine
 10
-65.1151226253077
 20
24.8806250000003
 30
0.0
 11
-66.25262262530768
 21
24.8806250000003
 31
0.0
  0
LINE
  5
186
330
1F
100
AcDbEntity
  8
1
  6
Continuous
 62
     7
100
AcDbLine
 10
-66.4416226253077
 20
24.2943750000003
 30
0.0
 11
-66.0627476253077
 21
24.2943750000003
 31
0.0
  0
LINE
  5
187
330
1F
100
AcDbEntity
  8
1
  6
Continuous
 62
     7
100
AcDbLine
 10
-65.30499762530769
 20
24.2943750000003
 30
0.0
 11
-64.9261226253077
 21
24.2943750000003
 31
0.0
  0
LINE
  5
188
330
1F
100
AcDbEntity
  8
1
  6
Continuous
 62
     7
100
AcDbLine
 10
-66.1213726253077
 20
19.8593750000002
 30
0.0
 11
-65.2463726253077
 21
19.8593750000002
 31
0.0
  0
LINE
  5
189
330
1F
100
AcDbEntity
  8
1
  6
Continuous
 62
     7
100
AcDbLine
 10
-66.1213726253077
 20
19.3490750000002
 30
0.0
 11
-66.1213726253077
 21
19.8593750000002
 31
0.0
  0
LINE
  5
18A
330
1F
100
AcDbEntity
  8
1
  6
Continuous
 62
     7
100
AcDbLine
 10
-65.2463726253077
 20
19.4685417843702
 30
0.0
 11
-66.1213726253077
 21
19.4685417843702
 31
0.0
  0
LINE
  5
18B
330
1F
100
AcDbEntity
  8
1
  6
Continuous
 62
     7
100
AcDbLine
 10
-65.2463726253077
 20
19.5880085687392
 30
0.0
 11
-66.1213726253077
 21
19.5880085687392
 31
0.0
  0
LINE
  5
18C
330
1F
100
AcDbEntity
  8
1
  6
Continuous
 62
     7
100
AcDbLine
 10
-65.2463726253077
 20
19.7074753531092
 30
0.0
 11
-66.1213726253077
 21
19.7074753531092
 31
0.0
  0
LINE
  5
18D
330
1F
100
AcDbEntity
  8
1
  6
Continuous
 62
     7
100
AcDbLine
 10
-60.5213726253077
 20
19.7074753531092
 30
0.0
 11
-61.39637262530769
 21
19.7074753531092
 31
0.0
  0
LINE
  5
18E
330
1F
100
AcDbEntity
  8
1
  6
Continuous
 62
     7
100
AcDbLine
 10
-60.5213726253077
 20
19.5880085687392
 30
0.0
 11
-61.39637262530769
 21
19.5880085687392
 31
0.0
  0
LINE
  5
18F
330
1F
100
AcDbEntity
  8
1
  6
Continuous
 62
     7
100
AcDbLine
 10
-60.5213726253077
 20
19.4685417843702
 30
0.0
 11
-61.39637262530769
 21
19.4685417843702
 31
0.0
  0
LINE
  5
190
330
1F
100
AcDbEntity
  8
1
  6
Continuous
 62
     7
100
AcDbLine
 10
-61.39637262530769
 20
19.3490750000002
 30
0.0
 11
-61.39637262530769
 21
19.8593750000002
 31
0.0
  0
LINE
  5
191
330
1F
100
AcDbEntity
  8
1
  6
Continuous
 62
     7
100
AcDbLine
 10
-61.39637262530769
 20
19.8593750000002
 30
0.0
 11
-60.5213726253077
 21
19.8593750000002
 31
0.0
  0
LINE
  5
192
330
1F
100
AcDbEntity
  8
1
  6
Continuous
 62
     7
100
AcDbLine
 10
-60.3901226253076
 20
24.8806250000003
 30
0.0
 11
-61.52762262530769
 21
24.8806250000003
 31
0.0
  0
LINE
  5
193
330
1F
100
AcDbEntity
  8
1
  6
Continuous
 62
     7
100
AcDbLine
 10
-60.5213726253077
 20
19.3490750000002
 30
0.0
 11
-60.5760726253077
 21
19.2943750000002
 31
0.0
  0
LINE
  5
194
330
1F
100
AcDbEntity
  8
1
  6
Continuous
 62
     7
100
AcDbLine
 10
-60.5760726253077
 20
19.2943750000002
 30
0.0
 11
-61.34167262530769
 21
19.2943750000002
 31
0.0
  0
LINE
  5
195
330
1F
100
AcDbEntity
  8
1
  6
Continuous
 62
     7
100
AcDbLine
 10
-61.34167262530769
 20
19.2943750000002
 30
0.0
 11
-61.39637262530769
 21
19.3490750000002
 31
0.0
  0
LINE
  5
196
330
1F
100
AcDbEntity
  8
1
  6
Continuous
 62
     7
100
AcDbLine
 10
-60.5213726253077
 20
19.8593750000002
 30
0.0
 11
-60.5213726253077
 21
19.3490750000002
 31
0.0
  0
LINE
  5
197
330
1F
100
AcDbEntity
  8
1
  6
Continuous
 62
     7
100
AcDbLine
 10
-60.5213726253077
 20
19.3490750000002
 30
0.0
 11
-61.39637262530769
 21
19.3490750000002
 31
0.0
  0
LINE
  5
198
330
1F
100
AcDbEntity
  8
1
  6
Continuous
 62
     7
100
AcDbLine
 10
-61.71662262530769
 20
24.2943750000003
 30
0.0
 11
-61.33774762530769
 21
24.2943750000003
 31
0.0
  0
LINE
  5
199
330
1F
100
AcDbEntity
  8
1
  6
Continuous
 62
     7
100
AcDbLine
 10
-61.33774762530769
 20
24.2943750000003
 30
0.0
 11
-60.57999762530769
 21
24.2943750000003
 31
0.0
  0
LINE
  5
19A
330
1F
100
AcDbEntity
  8
1
  6
Continuous
 62
     7
100
AcDbLine
 10
-60.57999762530769
 20
24.2943750000003
 30
0.0
 11
-60.57999762530779
 21
24.8071250000003
 31
0.0
  0
LINE
  5
19B
330
1F
100
AcDbEntity
  8
1
  6
Continuous
 62
     7
100
AcDbLine
 10
-61.33774762530769
 20
24.2943750000003
 30
0.0
 11
-61.33774762530759
 21
24.8071250000004
 31
0.0
  0
LINE
  5
19C
330
1F
100
AcDbEntity
  8
1
  6
Continuous
 62
     7
100
AcDbLine
 10
-60.57999762530769
 20
24.2943750000003
 30
0.0
 11
-60.2011226253076
 21
24.2943750000003
 31
0.0
  0
LINE
  5
19D
330
1F
100
AcDbEntity
  8
1
  6
Continuous
 62
     7
100
AcDbLine
 10
-60.2011226253076
 20
24.2943750000003
 30
0.0
 11
-60.2011226253076
 21
24.8071250000004
 31
0.0
  0
LINE
  5
19E
330
1F
100
AcDbEntity
  8
1
  6
Continuous
 62
     7
100
AcDbLine
 10
-61.71662262530779
 20
24.8071250000004
 30
0.0
 11
-61.71662262530769
 21
24.2943750000003
 31
0.0
  0
LINE
  5
19F
330
1F
100
AcDbEntity
  8
1
  6
DASH_CENTER
 62
     7
100
AcDbLine
 10
-60.95887262530769
 20
20.8437500000002
 30
0.0
 11
-60.95887262530769
 21
19.7500000000002
 31
0.0
  0
LINE
  5
1A0
330
1F
100
AcDbEntity
  8
1
  6
Continuous
 62
     7
100
AcDbLine
 10
-61.5815266253077
 20
20.7343750000002
 30
0.0
 11
-60.3362186253077
 21
20.7343750000002
 31
0.0
  0
LINE
  5
1A1
330
1F
100
AcDbEntity
  8
1
  6
Continuous
 62
     7
100
AcDbLine
 10
-61.5815266253077
 20
19.8593750000002
 30
0.0
 11
-60.3362186253077
 21
19.8593750000002
 31
0.0
  0
LINE
  5
1A2
330
1F
100
AcDbEntity
  8
1
  6
Continuous
 62
     7
100
AcDbLine
 10
-61.78859862530789
 20
19.9328749999994
 30
0.0
 11
-61.78859862530789
 21
20.660875000001
 31
0.0
  0
LINE
  5
1A3
330
1F
100
AcDbEntity
  8
1
  6
Continuous
 62
     7
100
AcDbLine
 10
-61.3740232253078
 20
20.6608750000002
 30
0.0
 11
-61.3740232253078
 21
19.9328750000002
 31
0.0
  0
LINE
  5
1A4
330
1F
100
AcDbEntity
  8
1
  6
Continuous
 62
     7
100
AcDbLine
 10
-60.54372202530799
 20
19.9328749999994
 30
0.0
 11
-60.54372202530789
 21
20.660875
 31
0.0
  0
LINE
  5
1A5
330
1F
100
AcDbEntity
  8
1
  6
Continuous
 62
     7
100
AcDbLine
 10
-60.1291466253075
 20
19.9328749999994
 30
0.0
 11
-60.1291466253075
 21
20.660875
 31
0.0
  0
LINE
  5
1A6
330
1F
100
AcDbEntity
  8
1
  6
Continuous
 62
     7
100
AcDbLine
 10
-55.70014662530739
 20
19.9328749999994
 30
0.0
 11
-55.70014662530739
 21
20.660875
 31
0.0
  0
LINE
  5
1A7
330
1F
100
AcDbEntity
  8
1
  6
Continuous
 62
     7
100
AcDbLine
 10
-56.11472202530739
 20
19.9328750000002
 30
0.0
 11
-56.11472202530739
 21
20.6608750000002
 31
0.0
  0
LINE
  5
1A8
330
1F
100
AcDbEntity
  8
1
  6
Continuous
 62
     7
100
AcDbLine
 10
-56.9450232253074
 20
20.660875000001
 30
0.0
 11
-56.9450232253074
 21
19.9328749999994
 31
0.0
  0
LINE
  5
1A9
330
1F
100
AcDbEntity
  8
1
  6
Continuous
 62
     7
100
AcDbLine
 10
-57.3595986253078
 20
19.9328749999994
 30
0.0
 11
-57.3595986253078
 21
20.660875000001
 31
0.0
  0
LINE
  5
1AA
330
1F
100
AcDbEntity
  8
1
  6
Continuous
 62
     7
100
AcDbLine
 10
-57.1525266253076
 20
19.8593750000002
 30
0.0
 11
-55.90721862530759
 21
19.8593750000002
 31
0.0
  0
LINE
  5
1AB
330
1F
100
AcDbEntity
  8
1
  6
Continuous
 62
     7
100
AcDbLine
 10
-57.1525266253076
 20
20.7343750000002
 30
0.0
 11
-55.90721862530759
 21
20.7343750000002
 31
0.0
  0
LINE
  5
1AC
330
1F
100
AcDbEntity
  8
1
  6
DASH_CENTER
 62
     7
100
AcDbLine
 10
-56.5298726253076
 20
20.8437500000002
 30
0.0
 11
-56.5298726253076
 21
19.7500000000002
 31
0.0
  0
LINE
  5
1AD
330
1F
100
AcDbEntity
  8
1
  6
Continuous
 62
     7
100
AcDbLine
 10
-57.2876226253077
 20
24.8071250000004
 30
0.0
 11
-57.2876226253076
 21
24.2943750000003
 31
0.0
  0
LINE
  5
1AE
330
1F
100
AcDbEntity
  8
1
  6
Continuous
 62
     7
100
AcDbLine
 10
-55.7721226253076
 20
24.2943750000003
 30
0.0
 11
-55.7721226253075
 21
24.8071250000004
 31
0.0
  0
LINE
  5
1AF
330
1F
100
AcDbEntity
  8
1
  6
Continuous
 62
     7
100
AcDbLine
 10
-56.9087476253076
 20
24.2943750000003
 30
0.0
 11
-56.9087476253075
 21
24.8071250000003
 31
0.0
  0
LINE
  5
1B0
330
1F
100
AcDbEntity
  8
1
  6
Continuous
 62
     7
100
AcDbLine
 10
-56.1509976253076
 20
24.2943750000003
 30
0.0
 11
-56.1509976253077
 21
24.8071250000004
 31
0.0
  0
LINE
  5
1B1
330
1F
100
AcDbEntity
  8
1
  6
Continuous
 62
     7
100
AcDbLine
 10
-56.9087476253076
 20
24.2943750000003
 30
0.0
 11
-56.1509976253076
 21
24.2943750000003
 31
0.0
  0
LINE
  5
1B2
330
1F
100
AcDbEntity
  8
1
  6
Continuous
 62
     7
100
AcDbLine
 10
-56.09237262530759
 20
19.3490750000002
 30
0.0
 11
-56.9673726253076
 21
19.3490750000002
 31
0.0
  0
LINE
  5
1B3
330
1F
100
AcDbEntity
  8
1
  6
Continuous
 62
     7
100
AcDbLine
 10
-56.09237262530759
 20
19.8593750000002
 30
0.0
 11
-56.09237262530759
 21
19.3490750000002
 31
0.0
  0
LINE
  5
1B4
330
1F
100
AcDbEntity
  8
1
  6
Continuous
 62
     7
100
AcDbLine
 10
-56.91267262530759
 20
19.2943750000002
 30
0.0
 11
-56.9673726253076
 21
19.3490750000002
 31
0.0
  0
LINE
  5
1B5
330
1F
100
AcDbEntity
  8
1
  6
Continuous
 62
     7
100
AcDbLine
 10
-56.14707262530759
 20
19.2943750000002
 30
0.0
 11
-56.91267262530759
 21
19.2943750000002
 31
0.0
  0
LINE
  5
1B6
330
1F
100
AcDbEntity
  8
1
  6
Continuous
 62
     7
100
AcDbLine
 10
-56.09237262530759
 20
19.3490750000002
 30
0.0
 11
-56.14707262530759
 21
19.2943750000002
 31
0.0
  0
LINE
  5
1B7
330
1F
100
AcDbEntity
  8
1
  6
Continuous
 62
     7
100
AcDbLine
 10
-55.9611226253076
 20
24.8806250000003
 30
0.0
 11
-57.0986226253076
 21
24.8806250000003
 31
0.0
  0
LINE
  5
1B8
330
1F
100
AcDbEntity
  8
1
  6
Continuous
 62
     7
100
AcDbLine
 10
-57.2876226253076
 20
24.2943750000003
 30
0.0
 11
-56.9087476253076
 21
24.2943750000003
 31
0.0
  0
LINE
  5
1B9
330
1F
100
AcDbEntity
  8
1
  6
Continuous
 62
     7
100
AcDbLine
 10
-56.1509976253076
 20
24.2943750000003
 30
0.0
 11
-55.7721226253076
 21
24.2943750000003
 31
0.0
  0
LINE
  5
1BA
330
1F
100
AcDbEntity
  8
1
  6
Continuous
 62
     7
100
AcDbLine
 10
-56.9673726253076
 20
19.8593750000002
 30
0.0
 11
-56.09237262530759
 21
19.8593750000002
 31
0.0
  0
LINE
  5
1BB
330
1F
100
AcDbEntity
  8
1
  6
Continuous
 62
     7
100
AcDbLine
 10
-56.9673726253076
 20
19.3490750000002
 30
0.0
 11
-56.9673726253076
 21
19.8593750000002
 31
0.0
  0
LINE
  5
1BC
330
1F
100
AcDbEntity
  8
1
  6
Continuous
 62
     7
100
AcDbLine
 10
-56.09237262530759
 20
19.4685417843702
 30
0.0
 11
-56.9673726253076
 21
19.4685417843702
 31
0.0
  0
LINE
  5
1BD
330
1F
100
AcDbEntity
  8
1
  6
Continuous
 62
     7
100
AcDbLine
 10
-56.09237262530759
 20
19.5880085687392
 30
0.0
 11
-56.9673726253076
 21
19.5880085687392
 31
0.0
  0
LINE
  5
1BE
330
1F
100
AcDbEntity
  8
1
  6
Continuous
 62
     7
100
AcDbLine
 10
-56.09237262530759
 20
19.7074753531092
 30
0.0
 11
-56.9673726253076
 21
19.7074753531092
 31
0.0
  0
LINE
  5
1BF
330
1F
100
AcDbEntity
  8
1
  6
Continuous
 62
     7
100
AcDbLine
 10
-53.9043726253076
 20
19.7074753531092
 30
0.0
 11
-54.7793726253076
 21
19.7074753531092
 31
0.0
  0
LINE
  5
1C0
330
1F
100
AcDbEntity
  8
1
  6
Continuous
 62
     7
100
AcDbLine
 10
-53.9043726253076
 20
19.5880085687392
 30
0.0
 11
-54.7793726253076
 21
19.5880085687392
 31
0.0
  0
LINE
  5
1C1
330
1F
100
AcDbEntity
  8
1
  6
Continuous
 62
     7
100
AcDbLine
 10
-53.9043726253076
 20
19.4685417843702
 30
0.0
 11
-54.7793726253076
 21
19.4685417843702
 31
0.0
  0
LINE
  5
1C2
330
1F
100
AcDbEntity
  8
1
  6
Continuous
 62
     7
100
AcDbLine
 10
-54.7793726253076
 20
19.3490750000002
 30
0.0
 11
-54.7793726253076
 21
19.8593750000002
 31
0.0
  0
LINE
  5
1C3
330
1F
100
AcDbEntity
  8
1
  6
Continuous
 62
     7
100
AcDbLine
 10
-54.7793726253076
 20
19.8593750000002
 30
0.0
 11
-53.9043726253076
 21
19.8593750000002
 31
0.0
  0
LINE
  5
1C4
330
1F
100
AcDbEntity
  8
1
  6
Continuous
 62
     7
100
AcDbLine
 10
-53.7731226253076
 20
24.8806250000003
 30
0.0
 11
-54.9106226253076
 21
24.8806250000003
 31
0.0
  0
LINE
  5
1C5
330
1F
100
AcDbEntity
  8
1
  6
Continuous
 62
     7
100
AcDbLine
 10
-53.9043726253076
 20
19.3490750000002
 30
0.0
 11
-53.95907262530759
 21
19.2943750000002
 31
0.0
  0
LINE
  5
1C6
330
1F
100
AcDbEntity
  8
1
  6
Continuous
 62
     7
100
AcDbLine
 10
-53.95907262530759
 20
19.2943750000002
 30
0.0
 11
-54.72467262530759
 21
19.2943750000002
 31
0.0
  0
LINE
  5
1C7
330
1F
100
AcDbEntity
  8
1
  6
Continuous
 62
     7
100
AcDbLine
 10
-54.72467262530759
 20
19.2943750000002
 30
0.0
 11
-54.7793726253076
 21
19.3490750000002
 31
0.0
  0
LINE
  5
1C8
330
1F
100
AcDbEntity
  8
1
  6
Continuous
 62
     7
100
AcDbLine
 10
-53.9043726253076
 20
19.8593750000002
 30
0.0
 11
-53.9043726253076
 21
19.3490750000002
 31
0.0
  0
LINE
  5
1C9
330
1F
100
AcDbEntity
  8
1
  6
Continuous
 62
     7
100
AcDbLine
 10
-53.9043726253076
 20
19.3490750000002
 30
0.0
 11
-54.7793726253076
 21
19.3490750000002
 31
0.0
  0
LINE
  5
1CA
330
1F
100
AcDbEntity
  8
1
  6
Continuous
 62
     7
100
AcDbLine
 10
-55.0996226253076
 20
24.2943750000003
 30
0.0
 11
-54.7207476253076
 21
24.2943750000003
 31
0.0
  0
LINE
  5
1CB
330
1F
100
AcDbEntity
  8
1
  6
Continuous
 62
     7
100
AcDbLine
 10
-54.7207476253076
 20
24.2943750000003
 30
0.0
 11
-53.9629976253076
 21
24.2943750000003
 31
0.0
  0
LINE
  5
1CC
330
1F
100
AcDbEntity
  8
1
  6
Continuous
 62
     7
100
AcDbLine
 10
-53.9629976253076
 20
24.2943750000003
 30
0.0
 11
-53.96299762530769
 21
24.8071250000003
 31
0.0
  0
LINE
  5
1CD
330
1F
100
AcDbEntity
  8
1
  6
Continuous
 62
     7
100
AcDbLine
 10
-54.7207476253076
 20
24.2943750000003
 30
0.0
 11
-54.7207476253075
 21
24.8071250000004
 31
0.0
  0
LINE
  5
1CE
330
1F
100
AcDbEntity
  8
1
  6
Continuous
 62
     7
100
AcDbLine
 10
-53.9629976253076
 20
24.2943750000003
 30
0.0
 11
-53.5841226253076
 21
24.2943750000003
 31
0.0
  0
LINE
  5
1CF
330
1F
100
AcDbEntity
  8
1
  6
Continuous
 62
     7
100
AcDbLine
 10
-53.5841226253076
 20
24.2943750000003
 30
0.0
 11
-53.5841226253075
 21
24.8071250000004
 31
0.0
  0
LINE
  5
1D0
330
1F
100
AcDbEntity
  8
1
  6
Continuous
 62
     7
100
AcDbLine
 10
-55.0996226253077
 20
24.8071250000004
 30
0.0
 11
-55.0996226253076
 21
24.2943750000003
 31
0.0
  0
LINE
  5
1D1
330
1F
100
AcDbEntity
  8
1
  6
DASH_CENTER
 62
     7
100
AcDbLine
 10
-54.3418726253076
 20
20.8437500000002
 30
0.0
 11
-54.3418726253076
 21
19.7500000000002
 31
0.0
  0
LINE
  5
1D2
330
1F
100
AcDbEntity
  8
1
  6
Continuous
 62
     7
100
AcDbLine
 10
-54.96452662530759
 20
20.7343750000002
 30
0.0
 11
-53.7192186253076
 21
20.7343750000002
 31
0.0
  0
LINE
  5
1D3
330
1F
100
AcDbEntity
  8
1
  6
Continuous
 62
     7
100
AcDbLine
 10
-54.96452662530759
 20
19.8593750000002
 30
0.0
 11
-53.7192186253076
 21
19.8593750000002
 31
0.0
  0
LINE
  5
1D4
330
1F
100
AcDbEntity
  8
1
  6
Continuous
 62
     7
100
AcDbLine
 10
-55.17159862530779
 20
19.9328749999994
 30
0.0
 11
-55.17159862530779
 21
20.660875000001
 31
0.0
  0
LINE
  5
1D5
330
1F
100
AcDbEntity
  8
1
  6
Continuous
 62
     7
100
AcDbLine
 10
-54.75702322530769
 20
20.6608750000002
 30
0.0
 11
-54.75702322530779
 21
19.9328750000002
 31
0.0
  0
LINE
  5
1D6
330
1F
100
AcDbEntity
  8
1
  6
Continuous
 62
     7
100
AcDbLine
 10
-53.92672202530779
 20
19.9328749999994
 30
0.0
 11
-53.92672202530779
 21
20.660875
 31
0.0
  0
LINE
  5
1D7
330
1F
100
AcDbEntity
  8
1
  6
Continuous
 62
     7
100
AcDbLine
 10
-53.5121466253074
 20
19.9328749999994
 30
0.0
 11
-53.5121466253074
 21
20.660875
 31
0.0
  0
LINE
  5
1D8
330
1F
100
AcDbEntity
  8
1
  6
Continuous
 62
     7
100
AcDbLine
 10
-56.1197148839806
 20
20.3593750000002
 30
0.0
 11
-56.1197148839806
 21
19.3217327413272
 31
0.0
  0
LINE
  5
1D9
330
1F
100
AcDbEntity
  8
1
  6
Continuous
 62
     7
100
AcDbLine
 10
-55.5812538643256
 20
20.4843750000002
 30
0.0
 11
-55.5812538643256
 21
-9.77904269586411
 31
0.0
  0
LINE
  5
1DA
330
1F
100
AcDbEntity
  8
1
  6
Continuous
 62
     7
100
AcDbLine
 10
-55.3312538643256
 20
20.7343750000002
 30
0.0
 11
-53.2568726253076
 21
20.7343750000002
 31
0.0
  0
LINE
  5
1DB
330
1F
100
AcDbEntity
  8
1
  6
Continuous
 62
     7
100
AcDbLine
 10
-59.5283596519106
 20
-12.2659830213601
 30
0.0
 11
-56.56822364933709
 21
-11.188581627043
 31
0.0
  0
LINE
  5
1DC
330
1F
100
AcDbEntity
  8
1
  6
Continuous
 62
     7
100
AcDbLine
 10
-53.2568726253076
 20
20.7343750000002
 30
0.0
 11
-53.2568726253076
 21
22.7343750000002
 31
0.0
  0
LINE
  5
1DD
330
1F
100
AcDbEntity
  8
1
  6
Continuous
 62
     7
100
AcDbLine
 10
-55.74471488398059
 20
20.7343750000002
 30
0.0
 11
-55.3312538643256
 21
20.7343750000002
 31
0.0
  0
LINE
  5
1DE
330
1F
100
AcDbEntity
  8
1
  6
Continuous
 62
     7
100
AcDbLine
 10
-53.2568726253076
 20
22.7343750000002
 30
0.0
 11
-72.7568726253078
 21
22.7343750000002
 31
0.0
  0
LINE
  5
1DF
330
1F
100
AcDbEntity
  8
1
  6
Continuous
 62
     7
100
AcDbLine
 10
-55.74471488398059
 20
20.7343750000002
 30
0.0
 11
-72.7568726253078
 21
20.7343750000002
 31
0.0
  0
LINE
  5
1E0
330
1F
100
AcDbEntity
  8
1
  6
Continuous
 62
     7
100
AcDbLine
 10
-56.1197148839806
 20
19.3217327413272
 30
0.0
 11
-56.1197148839806
 21
-5.00827524112205
 31
0.0
  0
LINE
  5
1E1
330
1F
100
AcDbEntity
  8
1
  6
Continuous
 62
     7
100
AcDbLine
 10
-72.7568726253078
 20
16.8593750000002
 30
0.0
 11
-58.5981955012837
 21
16.6122343715026
 31
0.0
  0
LINE
  5
1E2
330
1F
100
AcDbEntity
  8
1
  6
Continuous
 62
     7
100
AcDbLine
 10
-72.7568726253078
 20
15.7343750000002
 30
0.0
 11
-58.598195501284
 21
15.9815156284979
 31
0.0
  0
LINE
  5
1E3
330
1F
100
AcDbEntity
  8
1
  6
DASH_CENTER
 62
     7
100
AcDbLine
 10
-72.7568726253078
 20
11.7343750000001
 30
0.0
 11
-72.7568726253078
 21
8.8593750000001
 31
0.0
  0
LINE
  5
1E4
330
1F
100
AcDbEntity
  8
1
  6
Continuous
 62
     7
100
AcDbLine
 10
-67.2396466253075
 20
40.5912824790166
 30
0.0
 11
-67.2396466253075
 21
41.31928247901719
 31
0.0
  0
LINE
  5
1E5
330
1F
100
AcDbEntity
  8
1
  6
Continuous
 62
     7
100
AcDbLine
 10
-67.6542220253075
 20
40.5912824790164
 30
0.0
 11
-67.6542220253076
 21
41.3192824790175
 31
0.0
  0
LINE
  5
1E6
330
1F
100
AcDbEntity
  8
1
  6
Continuous
 62
     7
100
AcDbLine
 10
-68.4845232253075
 20
41.31928247901719
 30
0.0
 11
-68.4845232253075
 21
40.5912824790166
 31
0.0
  0
LINE
  5
1E7
330
1F
100
AcDbEntity
  8
1
  6
Continuous
 62
     7
100
AcDbLine
 10
-68.8990986253079
 20
40.5912824790166
 30
0.0
 11
-68.8990986253079
 21
41.31928247901719
 31
0.0
  0
LINE
  5
1E8
330
1F
100
AcDbEntity
  8
1
  6
Continuous
 62
     7
100
AcDbLine
 10
-68.6920266253077
 20
40.51778247901739
 30
0.0
 11
-67.4467186253077
 21
40.51778247901739
 31
0.0
  0
LINE
  5
1E9
330
1F
100
AcDbEntity
  8
1
  6
Continuous
 62
     7
100
AcDbLine
 10
-68.6920266253077
 20
41.3927824790174
 30
0.0
 11
-67.4467186253077
 21
41.3927824790174
 31
0.0
  0
LINE
  5
1EA
330
1F
100
AcDbEntity
  8
1
  6
Continuous
 62
     7
100
AcDbLine
 10
-68.5068726253078
 20
41.3927824790174
 30
0.0
 11
-67.6318726253077
 21
41.3927824790174
 31
0.0
  0
LINE
  5
1EB
330
1F
100
AcDbEntity
  8
1
  6
Continuous
 62
     7
100
AcDbLine
 10
-68.5068726253078
 20
40.51778247901739
 30
0.0
 11
-67.6318726253077
 21
40.51778247901739
 31
0.0
  0
LINE
  5
1EC
330
1F
100
AcDbEntity
  8
1
  6
Continuous
 62
     7
100
AcDbLine
 10
-68.5693726253077
 20
41.3927824790174
 30
0.0
 11
-69.0693726253078
 21
41.3927824790174
 31
0.0
  0
LINE
  5
1ED
330
1F
100
AcDbEntity
  8
1
  6
Continuous
 62
     7
100
AcDbLine
 10
-71.9271466253076
 20
40.5834023523386
 30
0.0
 11
-71.9271466253076
 21
41.31140235233929
 31
0.0
  0
LINE
  5
1EE
330
1F
100
AcDbEntity
  8
1
  6
Continuous
 62
     7
100
AcDbLine
 10
-72.3417220253076
 20
40.5834023523384
 30
0.0
 11
-72.3417220253077
 21
41.3114023523384
 31
0.0
  0
LINE
  5
1EF
330
1F
100
AcDbEntity
  8
1
  6
Continuous
 62
     7
100
AcDbLine
 10
-71.9271466253078
 20
40.5912824790174
 30
0.0
 11
-71.9271466253076
 21
41.31928247901719
 31
0.0
  0
LINE
  5
1F0
330
1F
100
AcDbEntity
  8
1
  6
Continuous
 62
     7
100
AcDbLine
 10
-72.3417220253078
 20
40.5912824790174
 30
0.0
 11
-72.34172202530799
 21
41.31928247901719
 31
0.0
  0
LINE
  5
1F1
330
1F
100
AcDbEntity
  8
1
  6
Continuous
 62
     7
100
AcDbLine
 10
-72.68605475716278
 20
40.5099023523384
 30
0.0
 11
-72.1342186253078
 21
40.5099023523384
 31
0.0
  0
LINE
  5
1F2
330
1F
100
AcDbEntity
  8
0
  6
Continuous
 62
     7
100
AcDbLine
 10
-68.5068726253078
 20
40.2677824790174
 30
0.0
 11
-67.6318726253077
 21
40.2677824790174
 31
0.0
  0
LINE
  5
1F3
330
1F
100
AcDbEntity
  8
0
  6
Continuous
 62
     7
100
AcDbLine
 10
-68.5068726253078
 20
40.51778247901739
 30
0.0
 11
-68.5068726253078
 21
40.2677824790174
 31
0.0
  0
LINE
  5
1F4
330
1F
100
AcDbEntity
  8
0
  6
Continuous
 62
     7
100
AcDbLine
 10
-68.4297992592517
 20
40.3795665774624
 30
0.0
 11
-67.7110492592517
 21
40.3795665774624
 31
0.0
  0
LINE
  5
1F5
330
1F
100
AcDbEntity
  8
0
  6
Continuous
 62
     7
100
AcDbLine
 10
-68.5068726253078
 20
40.2677824790174
 30
0.0
 11
-67.6318726253077
 21
40.2677824790174
 31
0.0
  0
LINE
  5
1F6
330
1F
100
AcDbEntity
  8
0
  6
Continuous
 62
     7
100
AcDbLine
 10
-67.6318726253077
 20
40.51778247901739
 30
0.0
 11
-67.6318726253077
 21
40.2677824790174
 31
0.0
  0
LINE
  5
1F7
330
1F
100
AcDbEntity
  8
0
  6
Continuous
 62
     7
100
AcDbLine
 10
-72.7568726253078
 20
40.2677824790174
 30
0.0
 11
-72.3193726253078
 21
40.2677824790174
 31
0.0
  0
LINE
  5
1F8
330
1F
100
AcDbEntity
  8
0
  6
Continuous
 62
     7
100
AcDbLine
 10
-72.3193726253078
 20
40.2677824790174
 30
0.0
 11
-72.3193726253078
 21
40.51778247901739
 31
0.0
  0
LINE
  5
1F9
330
1F
100
AcDbEntity
  8
0
  6
Continuous
 62
     7
100
AcDbLine
 10
-72.7568726253078
 20
40.3795665774624
 30
0.0
 11
-72.3964459913638
 21
40.3795665774624
 31
0.0
  0
LINE
  5
1FA
330
1F
100
AcDbEntity
  8
0
  6
Continuous
 62
     6
100
AcDbLine
 10
-72.92874762530779
 20
-18.2656250000002
 30
0.0
 11
-72.7568726253078
 21
-18.2656250000002
 31
0.0
  0
LINE
  5
1FB
330
1F
100
AcDbEntity
  8
1
  6
DASH_CENTER
 62
     7
100
AcDbLine
 10
-72.7568726253078
 20
8.8593750000001
 30
0.0
 11
-72.7568726253078
 21
-18.2656250000002
 31
0.0
  0
LINE
  5
1FC
330
1F
100
AcDbEntity
  8
1
  6
Continuous
 62
     7
100
AcDbLine
 10
-113.164798096815
 20
42.7047824790175
 30
0.0
 11
-112.814798096815
 21
42.7047824790175
 31
0.0
  0
LINE
  5
1FD
330
1F
100
AcDbEntity
  8
1
  6
Continuous
 62
     7
100
AcDbLine
 10
-109.622298096815
 20
44.2047824790175
 30
0.0
 11
-109.559798096815
 21
42.7047824790175
 31
0.0
  0
LINE
  5
1FE
330
1F
100
AcDbEntity
  8
1
  6
Continuous
 62
     7
100
AcDbLine
 10
-115.309798096815
 20
44.5797824790175
 30
0.0
 11
-109.997298096815
 21
44.5797824790175
 31
0.0
  0
LINE
  5
1FF
330
1F
100
AcDbEntity
  8
1
  6
Continuous
 62
     7
100
AcDbLine
 10
-109.559798096815
 20
42.7047824790175
 30
0.0
 11
-112.814798096815
 21
42.7047824790175
 31
0.0
  0
LINE
  5
200
330
1F
100
AcDbEntity
  8
1
  6
Continuous
 62
     7
100
AcDbLine
 10
-115.309798096815
 20
42.7047824790175
 30
0.0
 11
-113.164798096815
 21
42.7047824790175
 31
0.0
  0
LINE
  5
201
330
1F
100
AcDbEntity
  8
1
  6
Continuous
 62
     7
100
AcDbLine
 10
-109.622298096815
 20
42.7047824790175
 30
0.0
 11
-115.309798096815
 21
42.7047824790175
 31
0.0
  0
LINE
  5
202
330
1F
100
AcDbEntity
  8
1
  6
Continuous
 62
     7
100
AcDbLine
 10
-115.309798096815
 20
42.7047824790175
 30
0.0
 11
-109.622298096815
 21
42.7047824790175
 31
0.0
  0
LINE
  5
203
330
1F
100
AcDbEntity
  8
1
  6
Continuous
 62
     7
100
AcDbLine
 10
-108.808425750817
 20
15.1817369969912
 30
0.0
 11
-108.808425750817
 21
10.3593750000001
 31
0.0
  0
LINE
  5
204
330
1F
100
AcDbEntity
  8
1
  6
Continuous
 62
     7
100
AcDbLine
 10
-108.308425750817
 20
9.85937500000011
 30
0.0
 11
-107.701614966059
 21
9.85937500000011
 31
0.0
  0
LINE
  5
205
330
1F
100
AcDbEntity
  8
1
  6
Continuous
 62
     7
100
AcDbLine
 10
-110.893476065051
 20
39.3635117880703
 30
0.0
 11
-110.893476065051
 21
39.3635117880703
 31
0.0
  0
LINE
  5
206
330
1F
100
AcDbEntity
  8
1
  6
Continuous
 62
     7
100
AcDbLine
 10
-108.809798096815
 20
24.8806250000003
 30
0.0
 11
-108.809798096815
 21
35.4418148844044
 31
0.0
  0
LINE
  5
207
330
1F
100
AcDbEntity
  8
1
  6
Continuous
 62
     7
100
AcDbLine
 10
-106.434798096815
 20
24.2943750000003
 30
0.0
 11
-108.309798096815
 21
24.2943750000003
 31
0.0
  0
LINE
  5
208
330
1F
100
AcDbEntity
  8
1
  6
Continuous
 62
     7
100
AcDbLine
 10
-106.434798096815
 20
22.7943750000002
 30
0.0
 11
-106.434798096815
 21
24.2943750000003
 31
0.0
  0
LINE
  5
209
330
1F
100
AcDbEntity
  8
1
  6
Continuous
 62
     7
100
AcDbLine
 10
-115.309798096815
 20
22.7943750000002
 30
0.0
 11
-106.434798096815
 21
22.7943750000002
 31
0.0
  0
LINE
  5
20A
330
1F
100
AcDbEntity
  8
1
  6
Continuous
 62
     7
100
AcDbLine
 10
-110.122298096815
 20
41.3927824790174
 30
0.0
 11
-109.622298096815
 21
41.3927824790174
 31
0.0
  0
LINE
  5
20B
330
1F
100
AcDbEntity
  8
1
  6
Continuous
 62
     7
100
AcDbLine
 10
-109.352341963948
 20
37.1625441934575
 30
0.0
 11
-110.893476065051
 21
39.3635117880703
 31
0.0
  0
LINE
  5
20C
330
1F
100
AcDbEntity
  8
1
  6
Continuous
 62
     7
100
AcDbLine
 10
-110.122298096815
 20
41.3927824790174
 30
0.0
 11
-111.513814890831
 21
41.3927824790174
 31
0.0
  0
LINE
  5
20D
330
1F
100
AcDbEntity
  8
1
  6
Continuous
 62
     7
100
AcDbLine
 10
-115.309798096815
 20
24.2943750000003
 30
0.0
 11
-108.309798096815
 21
24.2943750000003
 31
0.0
  0
LINE
  5
20E
330
1F
100
AcDbEntity
  8
1
  6
Continuous
 62
     7
100
AcDbLine
 10
-115.309798096815
 20
41.3927824790174
 30
0.0
 11
-111.513814890831
 21
41.3927824790174
 31
0.0
  0
LINE
  5
20F
330
1F
100
AcDbEntity
  8
1
  6
DASH_CENTER
 62
     7
100
AcDbLine
 10
-115.309798096815
 20
35.4242432240094
 30
0.0
 11
-115.309798096815
 21
35.76778247901739
 31
0.0
  0
LINE
  5
210
330
1F
100
AcDbEntity
  8
1
  6
DASH_CENTER
 62
     2
100
AcDbLine
 10
-115.309798096815
 20
40.1274370612844
 30
0.0
 11
-115.309798096815
 21
35.76778247901739
 31
0.0
  0
LINE
  5
211
330
1F
100
AcDbEntity
  8
1
  6
Continuous
 62
     7
100
AcDbLine
 10
-112.073072096815
 20
19.9328749999994
 30
0.0
 11
-112.073072096815
 21
20.660875
 31
0.0
  0
LINE
  5
212
330
1F
100
AcDbEntity
  8
1
  6
Continuous
 62
     7
100
AcDbLine
 10
-112.487647496815
 20
19.9328750000002
 30
0.0
 11
-112.487647496815
 21
20.6608750000002
 31
0.0
  0
LINE
  5
213
330
1F
100
AcDbEntity
  8
1
  6
Continuous
 62
     7
100
AcDbLine
 10
-113.317948696815
 20
20.660875000001
 30
0.0
 11
-113.317948696815
 21
19.9328749999994
 31
0.0
  0
LINE
  5
214
330
1F
100
AcDbEntity
  8
1
  6
Continuous
 62
     7
100
AcDbLine
 10
-113.732524096815
 20
19.9328749999994
 30
0.0
 11
-113.732524096815
 21
20.660875000001
 31
0.0
  0
LINE
  5
215
330
1F
100
AcDbEntity
  8
1
  6
Continuous
 62
     7
100
AcDbLine
 10
-113.525452096815
 20
19.8593750000002
 30
0.0
 11
-112.280144096815
 21
19.8593750000002
 31
0.0
  0
LINE
  5
216
330
1F
100
AcDbEntity
  8
1
  6
Continuous
 62
     7
100
AcDbLine
 10
-113.525452096815
 20
20.7343750000002
 30
0.0
 11
-112.280144096815
 21
20.7343750000002
 31
0.0
  0
LINE
  5
217
330
1F
100
AcDbEntity
  8
1
  6
DASH_CENTER
 62
     7
100
AcDbLine
 10
-112.902798096815
 20
20.8437500000002
 30
0.0
 11
-112.902798096815
 21
19.7500000000002
 31
0.0
  0
LINE
  5
218
330
1F
100
AcDbEntity
  8
1
  6
Continuous
 62
     7
100
AcDbLine
 10
-113.660548096815
 20
24.8071250000004
 30
0.0
 11
-113.660548096815
 21
24.2943750000003
 31
0.0
  0
LINE
  5
219
330
1F
100
AcDbEntity
  8
1
  6
Continuous
 62
     7
100
AcDbLine
 10
-112.145048096815
 20
24.2943750000003
 30
0.0
 11
-112.145048096815
 21
24.8071250000004
 31
0.0
  0
LINE
  5
21A
330
1F
100
AcDbEntity
  8
1
  6
Continuous
 62
     7
100
AcDbLine
 10
-113.281673096815
 20
24.2943750000003
 30
0.0
 11
-113.281673096815
 21
24.8071250000003
 31
0.0
  0
LINE
  5
21B
330
1F
100
AcDbEntity
  8
1
  6
Continuous
 62
     7
100
AcDbLine
 10
-112.523923096815
 20
24.2943750000003
 30
0.0
 11
-112.523923096815
 21
24.8071250000004
 31
0.0
  0
LINE
  5
21C
330
1F
100
AcDbEntity
  8
1
  6
Continuous
 62
     7
100
AcDbLine
 10
-113.281673096815
 20
24.2943750000003
 30
0.0
 11
-112.523923096815
 21
24.2943750000003
 31
0.0
  0
LINE
  5
21D
330
1F
100
AcDbEntity
  8
1
  6
Continuous
 62
     7
100
AcDbLine
 10
-112.465298096815
 20
19.3490750000002
 30
0.0
 11
-113.340298096815
 21
19.3490750000002
 31
0.0
  0
LINE
  5
21E
330
1F
100
AcDbEntity
  8
1
  6
Continuous
 62
     7
100
AcDbLine
 10
-112.465298096815
 20
19.8593750000002
 30
0.0
 11
-112.465298096815
 21
19.3490750000002
 31
0.0
  0
LINE
  5
21F
330
1F
100
AcDbEntity
  8
1
  6
Continuous
 62
     7
100
AcDbLine
 10
-113.285598096815
 20
19.2943750000002
 30
0.0
 11
-113.340298096815
 21
19.3490750000002
 31
0.0
  0
LINE
  5
220
330
1F
100
AcDbEntity
  8
1
  6
Continuous
 62
     7
100
AcDbLine
 10
-112.519998096815
 20
19.2943750000002
 30
0.0
 11
-113.285598096815
 21
19.2943750000002
 31
0.0
  0
LINE
  5
221
330
1F
100
AcDbEntity
  8
1
  6
Continuous
 62
     7
100
AcDbLine
 10
-112.465298096815
 20
19.3490750000002
 30
0.0
 11
-112.519998096815
 21
19.2943750000002
 31
0.0
  0
LINE
  5
222
330
1F
100
AcDbEntity
  8
1
  6
Continuous
 62
     7
100
AcDbLine
 10
-112.334048096815
 20
24.8806250000003
 30
0.0
 11
-113.471548096815
 21
24.8806250000003
 31
0.0
  0
LINE
  5
223
330
1F
100
AcDbEntity
  8
1
  6
Continuous
 62
     7
100
AcDbLine
 10
-113.660548096815
 20
24.2943750000003
 30
0.0
 11
-113.281673096815
 21
24.2943750000003
 31
0.0
  0
LINE
  5
224
330
1F
100
AcDbEntity
  8
1
  6
Continuous
 62
     7
100
AcDbLine
 10
-112.523923096815
 20
24.2943750000003
 30
0.0
 11
-112.145048096815
 21
24.2943750000003
 31
0.0
  0
LINE
  5
225
330
1F
100
AcDbEntity
  8
1
  6
Continuous
 62
     7
100
AcDbLine
 10
-113.340298096815
 20
19.8593750000002
 30
0.0
 11
-112.465298096815
 21
19.8593750000002
 31
0.0
  0
LINE
  5
226
330
1F
100
AcDbEntity
  8
1
  6
Continuous
 62
     7
100
AcDbLine
 10
-113.340298096815
 20
19.3490750000002
 30
0.0
 11
-113.340298096815
 21
19.8593750000002
 31
0.0
  0
LINE
  5
227
330
1F
100
AcDbEntity
  8
1
  6
Continuous
 62
     7
100
AcDbLine
 10
-112.465298096815
 20
19.4685417843702
 30
0.0
 11
-113.340298096815
 21
19.4685417843702
 31
0.0
  0
LINE
  5
228
330
1F
100
AcDbEntity
  8
1
  6
Continuous
 62
     7
100
AcDbLine
 10
-112.465298096815
 20
19.5880085687392
 30
0.0
 11
-113.340298096815
 21
19.5880085687392
 31
0.0
  0
LINE
  5
229
330
1F
100
AcDbEntity
  8
1
  6
Continuous
 62
     7
100
AcDbLine
 10
-112.465298096815
 20
19.7074753531092
 30
0.0
 11
-113.340298096815
 21
19.7074753531092
 31
0.0
  0
LINE
  5
22A
330
1F
100
AcDbEntity
  8
1
  6
DASH_CENTER
 62
     7
100
AcDbLine
 10
-109.007798096815
 20
20.8437500000002
 30
0.0
 11
-109.007798096815
 21
19.7500000000002
 31
0.0
  0
LINE
  5
22B
330
1F
100
AcDbEntity
  8
1
  6
DASH_CENTER
 62
     7
100
AcDbLine
 10
-108.057798096815
 20
20.8437500000002
 30
0.0
 11
-108.057798096815
 21
19.7500000000002
 31
0.0
  0
LINE
  5
22C
330
1F
100
AcDbEntity
  8
1
  6
DASH_CENTER
 62
     7
100
AcDbLine
 10
-107.559798096815
 20
20.8437500000002
 30
0.0
 11
-107.559798096815
 21
19.7500000000002
 31
0.0
  0
LINE
  5
22D
330
1F
100
AcDbEntity
  8
1
  6
Continuous
 62
     7
100
AcDbLine
 10
-112.929798096815
 20
-5.67502783750374
 30
0.0
 11
-112.929798096815
 21
19.2943750000002
 31
0.0
  0
LINE
  5
22E
330
1F
100
AcDbEntity
  8
1
  6
Continuous
 62
     7
100
AcDbLine
 10
-115.309798096815
 20
19.7343750000002
 30
0.0
 11
-113.340298096815
 21
19.7343750000002
 31
0.0
  0
LINE
  5
22F
330
1F
100
AcDbEntity
  8
1
  6
Continuous
 62
     7
100
AcDbLine
 10
-115.309798096815
 20
22.7343750000002
 30
0.0
 11
-106.434798096815
 21
22.7343750000002
 31
0.0
  0
LINE
  5
230
330
1F
100
AcDbEntity
  8
1
  6
Continuous
 62
     7
100
AcDbLine
 10
-112.918392826268
 20
-11.057336055775
 30
0.0
 11
-112.929798096815
 21
-10.8293540031791
 31
0.0
  0
LINE
  5
231
330
1F
100
AcDbEntity
  8
1
  6
Continuous
 62
     7
100
AcDbLine
 10
-112.743473400722
 20
-14.5538326548032
 30
0.0
 11
-112.918392826268
 21
-11.057336055775
 31
0.0
  0
LINE
  5
232
330
1F
100
AcDbEntity
  8
1
  6
Continuous
 62
     7
100
AcDbLine
 10
-113.179798096815
 20
-11.1885816270431
 30
0.0
 11
-113.043236700125
 21
-11.1885816270431
 31
0.0
  0
LINE
  5
233
330
1F
100
AcDbEntity
  8
1
  6
Continuous
 62
     7
100
AcDbLine
 10
-113.179798096815
 20
-11.1885816270431
 30
0.0
 11
-115.309798096815
 21
-11.1885816270431
 31
0.0
  0
LINE
  5
234
330
1F
100
AcDbEntity
  8
1
  6
Continuous
 62
     7
100
AcDbLine
 10
-108.808425750817
 20
11.4598281843534
 30
0.0
 11
-108.808425750817
 21
11.4598281843534
 31
0.0
  0
LINE
  5
235
330
1F
100
AcDbEntity
  8
1
  6
Continuous
 62
     7
100
AcDbLine
 10
-112.929798096815
 20
-10.8293540031791
 30
0.0
 11
-112.929798096815
 21
-5.67502783750374
 31
0.0
  0
LINE
  5
236
330
1F
100
AcDbEntity
  8
1
  6
Continuous
 62
     7
100
AcDbLine
 10
-108.808425750817
 20
19.2943750000002
 30
0.0
 11
-108.808425750817
 21
17.4120130030092
 31
0.0
  0
LINE
  5
237
330
1F
100
AcDbEntity
  8
1
  6
Continuous
 62
     7
100
AcDbLine
 10
-108.808425750817
 20
15.1817369969912
 30
0.0
 11
-108.808425750817
 21
11.4598281843534
 31
0.0
  0
LINE
  5
238
330
1F
100
AcDbEntity
  8
1
  6
Continuous
 62
     7
100
AcDbLine
 10
-108.325875499168
 20
15.6814324105007
 30
0.0
 11
-107.104532409556
 21
15.7240826510032
 31
0.0
  0
LINE
  5
239
330
1F
100
AcDbEntity
  8
1
  6
Continuous
 62
     7
100
AcDbLine
 10
-106.809798096815
 20
15.9757971937022
 30
0.0
 11
-106.809798096815
 21
16.6179528062982
 31
0.0
  0
LINE
  5
23A
330
1F
100
AcDbEntity
  8
1
  6
Continuous
 62
     7
100
AcDbLine
 10
-107.051073222639
 20
16.867800513053
 30
0.0
 11
-108.325875499168
 21
16.9123175894997
 31
0.0
  0
LINE
  5
23B
330
1F
100
AcDbEntity
  8
1
  6
Continuous
 62
     7
100
AcDbLine
 10
-106.434798096815
 20
20.7343750000002
 30
0.0
 11
-106.434798096815
 21
22.7343750000002
 31
0.0
  0
LINE
  5
23C
330
1F
100
AcDbEntity
  8
1
  6
Continuous
 62
     7
100
AcDbLine
 10
-108.433425750817
 20
20.7343750000002
 30
0.0
 11
-106.434798096815
 21
20.7343750000002
 31
0.0
  0
LINE
  5
23D
330
1F
100
AcDbEntity
  8
1
  6
Continuous
 62
     7
100
AcDbLine
 10
-107.121370436493
 20
16.8600302344342
 30
0.0
 11
-109.363163765156
 21
16.6122343715026
 31
0.0
  0
LINE
  5
23E
330
1F
100
AcDbEntity
  8
1
  6
Continuous
 62
     7
100
AcDbLine
 10
-109.363163765156
 20
15.9815156284979
 30
0.0
 11
-107.104532409556
 21
15.7240826510032
 31
0.0
  0
LINE
  5
23F
330
1F
100
AcDbEntity
  8
1
  6
Continuous
 62
     7
100
AcDbLine
 10
-107.104532409556
 20
15.7240826510032
 30
0.0
 11
-107.051073222639
 21
15.7259494869474
 31
0.0
  0
LINE
  5
240
330
1F
100
AcDbEntity
  8
1
  6
Continuous
 62
     7
100
AcDbLine
 10
-108.433425750817
 20
20.7343750000002
 30
0.0
 11
-115.309798096815
 21
20.7343750000002
 31
0.0
  0
LINE
  5
241
330
1F
100
AcDbEntity
  8
1
  6
Continuous
 62
     7
100
AcDbLine
 10
-113.179798096815
 20
19.2943750000002
 30
0.0
 11
-113.179798096815
 21
-11.1885816270431
 31
0.0
  0
LINE
  5
242
330
1F
100
AcDbEntity
  8
1
  6
Continuous
 62
     7
100
AcDbLine
 10
-109.765548096815
 20
24.8071250000004
 30
0.0
 11
-109.765548096815
 21
24.2943750000003
 31
0.0
  0
LINE
  5
243
330
1F
100
AcDbEntity
  8
1
  6
Continuous
 62
     7
100
AcDbLine
 10
-108.250048096815
 20
24.2943750000003
 30
0.0
 11
-108.250048096815
 21
24.8071250000004
 31
0.0
  0
LINE
  5
244
330
1F
100
AcDbEntity
  8
1
  6
Continuous
 62
     7
100
AcDbLine
 10
-109.386673096815
 20
24.2943750000003
 30
0.0
 11
-109.386673096815
 21
24.8071250000003
 31
0.0
  0
LINE
  5
245
330
1F
100
AcDbEntity
  8
1
  6
Continuous
 62
     7
100
AcDbLine
 10
-108.628923096815
 20
24.2943750000003
 30
0.0
 11
-108.628923096815
 21
24.8071250000004
 31
0.0
  0
LINE
  5
246
330
1F
100
AcDbEntity
  8
1
  6
Continuous
 62
     7
100
AcDbLine
 10
-109.386673096815
 20
24.2943750000003
 30
0.0
 11
-108.628923096815
 21
24.2943750000003
 31
0.0
  0
LINE
  5
247
330
1F
100
AcDbEntity
  8
1
  6
Continuous
 62
     7
100
AcDbLine
 10
-108.439048096815
 20
24.8806250000003
 30
0.0
 11
-109.576548096815
 21
24.8806250000003
 31
0.0
  0
LINE
  5
248
330
1F
100
AcDbEntity
  8
1
  6
Continuous
 62
     7
100
AcDbLine
 10
-109.765548096815
 20
24.2943750000003
 30
0.0
 11
-109.386673096815
 21
24.2943750000003
 31
0.0
  0
LINE
  5
249
330
1F
100
AcDbEntity
  8
1
  6
Continuous
 62
     7
100
AcDbLine
 10
-108.628923096815
 20
24.2943750000003
 30
0.0
 11
-108.250048096815
 21
24.2943750000003
 31
0.0
  0
LINE
  5
24A
330
1F
100
AcDbEntity
  8
1
  6
Continuous
 62
     7
100
AcDbLine
 10
-108.178072096815
 20
19.9328749999994
 30
0.0
 11
-108.178072096815
 21
20.660875
 31
0.0
  0
LINE
  5
24B
330
1F
100
AcDbEntity
  8
1
  6
Continuous
 62
     7
100
AcDbLine
 10
-108.592647496815
 20
19.9328750000002
 30
0.0
 11
-108.592647496815
 21
20.6608750000002
 31
0.0
  0
LINE
  5
24C
330
1F
100
AcDbEntity
  8
1
  6
Continuous
 62
     7
100
AcDbLine
 10
-109.422948696815
 20
20.660875000001
 30
0.0
 11
-109.422948696815
 21
19.9328749999994
 31
0.0
  0
LINE
  5
24D
330
1F
100
AcDbEntity
  8
1
  6
Continuous
 62
     7
100
AcDbLine
 10
-109.837524096815
 20
19.9328749999994
 30
0.0
 11
-109.837524096815
 21
20.660875000001
 31
0.0
  0
LINE
  5
24E
330
1F
100
AcDbEntity
  8
1
  6
Continuous
 62
     7
100
AcDbLine
 10
-109.630452096815
 20
19.8593750000002
 30
0.0
 11
-108.385144096815
 21
19.8593750000002
 31
0.0
  0
LINE
  5
24F
330
1F
100
AcDbEntity
  8
1
  6
Continuous
 62
     7
100
AcDbLine
 10
-109.630452096815
 20
20.7343750000002
 30
0.0
 11
-108.385144096815
 21
20.7343750000002
 31
0.0
  0
LINE
  5
250
330
1F
100
AcDbEntity
  8
1
  6
DASH_CENTER
 62
     7
100
AcDbLine
 10
-109.007798096815
 20
20.8437500000002
 30
0.0
 11
-109.007798096815
 21
19.7500000000002
 31
0.0
  0
LINE
  5
251
330
1F
100
AcDbEntity
  8
1
  6
Continuous
 62
     7
100
AcDbLine
 10
-108.570298096815
 20
19.3490750000002
 30
0.0
 11
-109.445298096815
 21
19.3490750000002
 31
0.0
  0
LINE
  5
252
330
1F
100
AcDbEntity
  8
1
  6
Continuous
 62
     7
100
AcDbLine
 10
-108.570298096815
 20
19.8593750000002
 30
0.0
 11
-108.570298096815
 21
19.3490750000002
 31
0.0
  0
LINE
  5
253
330
1F
100
AcDbEntity
  8
1
  6
Continuous
 62
     7
100
AcDbLine
 10
-109.390598096815
 20
19.2943750000002
 30
0.0
 11
-109.445298096815
 21
19.3490750000002
 31
0.0
  0
LINE
  5
254
330
1F
100
AcDbEntity
  8
1
  6
Continuous
 62
     7
100
AcDbLine
 10
-108.624998096815
 20
19.2943750000002
 30
0.0
 11
-109.390598096815
 21
19.2943750000002
 31
0.0
  0
LINE
  5
255
330
1F
100
AcDbEntity
  8
1
  6
Continuous
 62
     7
100
AcDbLine
 10
-108.570298096815
 20
19.3490750000002
 30
0.0
 11
-108.624998096815
 21
19.2943750000002
 31
0.0
  0
LINE
  5
256
330
1F
100
AcDbEntity
  8
1
  6
Continuous
 62
     7
100
AcDbLine
 10
-109.445298096815
 20
19.8593750000002
 30
0.0
 11
-108.570298096815
 21
19.8593750000002
 31
0.0
  0
LINE
  5
257
330
1F
100
AcDbEntity
  8
1
  6
Continuous
 62
     7
100
AcDbLine
 10
-109.445298096815
 20
19.3490750000002
 30
0.0
 11
-109.445298096815
 21
19.8593750000002
 31
0.0
  0
LINE
  5
258
330
1F
100
AcDbEntity
  8
1
  6
Continuous
 62
     7
100
AcDbLine
 10
-108.570298096815
 20
19.4685417843702
 30
0.0
 11
-109.445298096815
 21
19.4685417843702
 31
0.0
  0
LINE
  5
259
330
1F
100
AcDbEntity
  8
1
  6
Continuous
 62
     7
100
AcDbLine
 10
-108.570298096815
 20
19.5880085687392
 30
0.0
 11
-109.445298096815
 21
19.5880085687392
 31
0.0
  0
LINE
  5
25A
330
1F
100
AcDbEntity
  8
1
  6
Continuous
 62
     7
100
AcDbLine
 10
-108.570298096815
 20
19.7074753531092
 30
0.0
 11
-109.445298096815
 21
19.7074753531092
 31
0.0
  0
LINE
  5
25B
330
1F
100
AcDbEntity
  8
1
  6
Continuous
 62
     7
100
AcDbLine
 10
-107.228072096815
 20
19.9328749999994
 30
0.0
 11
-107.228072096815
 21
20.660875
 31
0.0
  0
LINE
  5
25C
330
1F
100
AcDbEntity
  8
1
  6
Continuous
 62
     7
100
AcDbLine
 10
-107.642647496815
 20
19.9328750000002
 30
0.0
 11
-107.642647496815
 21
20.6608750000002
 31
0.0
  0
LINE
  5
25D
330
1F
100
AcDbEntity
  8
1
  6
Continuous
 62
     7
100
AcDbLine
 10
-108.680452096815
 20
19.8593750000002
 30
0.0
 11
-107.435144096815
 21
19.8593750000002
 31
0.0
  0
LINE
  5
25E
330
1F
100
AcDbEntity
  8
1
  6
Continuous
 62
     7
100
AcDbLine
 10
-108.680452096815
 20
20.7343750000002
 30
0.0
 11
-107.435144096815
 21
20.7343750000002
 31
0.0
  0
LINE
  5
25F
330
1F
100
AcDbEntity
  8
1
  6
DASH_CENTER
 62
     7
100
AcDbLine
 10
-108.057798096815
 20
20.8437500000002
 30
0.0
 11
-108.057798096815
 21
19.7500000000002
 31
0.0
  0
LINE
  5
260
330
1F
100
AcDbEntity
  8
1
  6
Continuous
 62
     7
100
AcDbLine
 10
-107.620298096815
 20
19.3490750000002
 30
0.0
 11
-108.495298096815
 21
19.3490750000002
 31
0.0
  0
LINE
  5
261
330
1F
100
AcDbEntity
  8
1
  6
Continuous
 62
     7
100
AcDbLine
 10
-107.620298096815
 20
19.8593750000002
 30
0.0
 11
-107.620298096815
 21
19.3490750000002
 31
0.0
  0
LINE
  5
262
330
1F
100
AcDbEntity
  8
1
  6
Continuous
 62
     7
100
AcDbLine
 10
-108.440598096815
 20
19.2943750000002
 30
0.0
 11
-108.495298096815
 21
19.3490750000002
 31
0.0
  0
LINE
  5
263
330
1F
100
AcDbEntity
  8
1
  6
Continuous
 62
     7
100
AcDbLine
 10
-107.674998096815
 20
19.2943750000002
 30
0.0
 11
-108.440598096815
 21
19.2943750000002
 31
0.0
  0
LINE
  5
264
330
1F
100
AcDbEntity
  8
1
  6
Continuous
 62
     7
100
AcDbLine
 10
-107.620298096815
 20
19.3490750000002
 30
0.0
 11
-107.674998096815
 21
19.2943750000002
 31
0.0
  0
LINE
  5
265
330
1F
100
AcDbEntity
  8
1
  6
Continuous
 62
     7
100
AcDbLine
 10
-108.495298096815
 20
19.8593750000002
 30
0.0
 11
-107.620298096815
 21
19.8593750000002
 31
0.0
  0
LINE
  5
266
330
1F
100
AcDbEntity
  8
1
  6
Continuous
 62
     7
100
AcDbLine
 10
-108.495298096815
 20
19.3490750000002
 30
0.0
 11
-108.495298096815
 21
19.8593750000002
 31
0.0
  0
LINE
  5
267
330
1F
100
AcDbEntity
  8
1
  6
Continuous
 62
     7
100
AcDbLine
 10
-107.620298096815
 20
19.4685417843702
 30
0.0
 11
-108.495298096815
 21
19.4685417843702
 31
0.0
  0
LINE
  5
268
330
1F
100
AcDbEntity
  8
1
  6
Continuous
 62
     7
100
AcDbLine
 10
-107.620298096815
 20
19.5880085687392
 30
0.0
 11
-108.495298096815
 21
19.5880085687392
 31
0.0
  0
LINE
  5
269
330
1F
100
AcDbEntity
  8
1
  6
Continuous
 62
     7
100
AcDbLine
 10
-107.620298096815
 20
19.7074753531092
 30
0.0
 11
-108.495298096815
 21
19.7074753531092
 31
0.0
  0
LINE
  5
26A
330
1F
100
AcDbEntity
  8
1
  6
Continuous
 62
     7
100
AcDbLine
 10
-107.300048096815
 20
24.2943750000003
 30
0.0
 11
-107.300048096815
 21
24.8071250000004
 31
0.0
  0
LINE
  5
26B
330
1F
100
AcDbEntity
  8
1
  6
Continuous
 62
     7
100
AcDbLine
 10
-107.678923096815
 20
24.2943750000003
 30
0.0
 11
-107.678923096815
 21
24.8071250000004
 31
0.0
  0
LINE
  5
26C
330
1F
100
AcDbEntity
  8
1
  6
Continuous
 62
     7
100
AcDbLine
 10
-107.489048096815
 20
24.8806250000003
 30
0.0
 11
-108.626548096815
 21
24.8806250000003
 31
0.0
  0
LINE
  5
26D
330
1F
100
AcDbEntity
  8
1
  6
Continuous
 62
     7
100
AcDbLine
 10
-108.815548096815
 20
24.2943750000003
 30
0.0
 11
-107.678923096815
 21
24.2943750000003
 31
0.0
  0
LINE
  5
26E
330
1F
100
AcDbEntity
  8
1
  6
Continuous
 62
     7
100
AcDbLine
 10
-107.678923096815
 20
24.2943750000003
 30
0.0
 11
-107.300048096815
 21
24.2943750000003
 31
0.0
  0
LINE
  5
26F
330
1F
100
AcDbEntity
  8
1
  6
Continuous
 62
     7
100
AcDbLine
 10
-106.802048096815
 20
24.2943750000003
 30
0.0
 11
-106.802048096815
 21
24.8071250000004
 31
0.0
  0
LINE
  5
270
330
1F
100
AcDbEntity
  8
1
  6
Continuous
 62
     7
100
AcDbLine
 10
-107.180923096815
 20
24.2943750000003
 30
0.0
 11
-107.180923096815
 21
24.8071250000004
 31
0.0
  0
LINE
  5
271
330
1F
100
AcDbEntity
  8
1
  6
Continuous
 62
     7
100
AcDbLine
 10
-106.991048096815
 20
24.8806250000003
 30
0.0
 11
-108.128548096815
 21
24.8806250000003
 31
0.0
  0
LINE
  5
272
330
1F
100
AcDbEntity
  8
1
  6
Continuous
 62
     7
100
AcDbLine
 10
-108.317548096815
 20
24.2943750000003
 30
0.0
 11
-107.180923096815
 21
24.2943750000003
 31
0.0
  0
LINE
  5
273
330
1F
100
AcDbEntity
  8
1
  6
Continuous
 62
     7
100
AcDbLine
 10
-107.180923096815
 20
24.2943750000003
 30
0.0
 11
-106.802048096815
 21
24.2943750000003
 31
0.0
  0
LINE
  5
274
330
1F
100
AcDbEntity
  8
1
  6
Continuous
 62
     7
100
AcDbLine
 10
-106.730072096815
 20
19.9328749999994
 30
0.0
 11
-106.730072096815
 21
20.660875
 31
0.0
  0
LINE
  5
275
330
1F
100
AcDbEntity
  8
1
  6
Continuous
 62
     7
100
AcDbLine
 10
-107.144647496815
 20
19.9328750000002
 30
0.0
 11
-107.144647496815
 21
20.6608750000002
 31
0.0
  0
LINE
  5
276
330
1F
100
AcDbEntity
  8
1
  6
Continuous
 62
     7
100
AcDbLine
 10
-108.182452096815
 20
19.8593750000002
 30
0.0
 11
-106.937144096815
 21
19.8593750000002
 31
0.0
  0
LINE
  5
277
330
1F
100
AcDbEntity
  8
1
  6
Continuous
 62
     7
100
AcDbLine
 10
-108.182452096815
 20
20.7343750000002
 30
0.0
 11
-106.937144096815
 21
20.7343750000002
 31
0.0
  0
LINE
  5
278
330
1F
100
AcDbEntity
  8
1
  6
DASH_CENTER
 62
     7
100
AcDbLine
 10
-107.559798096815
 20
20.8437500000002
 30
0.0
 11
-107.559798096815
 21
19.7500000000002
 31
0.0
  0
LINE
  5
279
330
1F
100
AcDbEntity
  8
1
  6
Continuous
 62
     7
100
AcDbLine
 10
-107.122298096815
 20
19.3490750000002
 30
0.0
 11
-107.997298096815
 21
19.3490750000002
 31
0.0
  0
LINE
  5
27A
330
1F
100
AcDbEntity
  8
1
  6
Continuous
 62
     7
100
AcDbLine
 10
-107.122298096815
 20
19.8593750000002
 30
0.0
 11
-107.122298096815
 21
19.3490750000002
 31
0.0
  0
LINE
  5
27B
330
1F
100
AcDbEntity
  8
1
  6
Continuous
 62
     7
100
AcDbLine
 10
-107.176998096815
 20
19.2943750000002
 30
0.0
 11
-107.942598096815
 21
19.2943750000002
 31
0.0
  0
LINE
  5
27C
330
1F
100
AcDbEntity
  8
1
  6
Continuous
 62
     7
100
AcDbLine
 10
-107.122298096815
 20
19.3490750000002
 30
0.0
 11
-107.176998096815
 21
19.2943750000002
 31
0.0
  0
LINE
  5
27D
330
1F
100
AcDbEntity
  8
1
  6
Continuous
 62
     7
100
AcDbLine
 10
-107.997298096815
 20
19.8593750000002
 30
0.0
 11
-107.122298096815
 21
19.8593750000002
 31
0.0
  0
LINE
  5
27E
330
1F
100
AcDbEntity
  8
1
  6
Continuous
 62
     7
100
AcDbLine
 10
-107.122298096815
 20
19.4685417843702
 30
0.0
 11
-107.997298096815
 21
19.4685417843702
 31
0.0
  0
LINE
  5
27F
330
1F
100
AcDbEntity
  8
1
  6
Continuous
 62
     7
100
AcDbLine
 10
-107.122298096815
 20
19.5880085687392
 30
0.0
 11
-107.997298096815
 21
19.5880085687392
 31
0.0
  0
LINE
  5
280
330
1F
100
AcDbEntity
  8
1
  6
Continuous
 62
     7
100
AcDbLine
 10
-107.122298096815
 20
19.7074753531092
 30
0.0
 11
-107.997298096815
 21
19.7074753531092
 31
0.0
  0
LINE
  5
281
330
1F
100
AcDbEntity
  8
1
  6
Continuous
 62
     7
100
AcDbLine
 10
-111.244952096815
 20
41.3927824790174
 30
0.0
 11
-109.999644096815
 21
41.3927824790174
 31
0.0
  0
LINE
  5
282
330
1F
100
AcDbEntity
  8
1
  6
Continuous
 62
     7
100
AcDbLine
 10
-111.244952096815
 20
40.51778247901739
 30
0.0
 11
-109.999644096815
 21
40.51778247901739
 31
0.0
  0
LINE
  5
283
330
1F
100
AcDbEntity
  8
1
  6
Continuous
 62
     7
100
AcDbLine
 10
-109.792572096815
 20
41.31928247901719
 30
0.0
 11
-109.792572096815
 21
40.5912824790166
 31
0.0
  0
LINE
  5
284
330
1F
100
AcDbEntity
  8
1
  6
Continuous
 62
     7
100
AcDbLine
 10
-110.207147496815
 20
40.5912824790164
 30
0.0
 11
-110.207147496815
 21
41.3192824790175
 31
0.0
  0
LINE
  5
285
330
1F
100
AcDbEntity
  8
1
  6
Continuous
 62
     7
100
AcDbLine
 10
-111.037448696815
 20
41.31928247901719
 30
0.0
 11
-111.037448696815
 21
40.5912824790166
 31
0.0
  0
LINE
  5
286
330
1F
100
AcDbEntity
  8
1
  6
Continuous
 62
     7
100
AcDbLine
 10
-111.452024096815
 20
41.31928247901719
 30
0.0
 11
-111.452024096815
 21
40.5912824790166
 31
0.0
  0
LINE
  5
287
330
1F
100
AcDbEntity
  8
1
  6
Continuous
 62
     7
100
AcDbLine
 10
-111.059798096815
 20
40.51778247901739
 30
0.0
 11
-110.184798096815
 21
40.51778247901739
 31
0.0
  0
LINE
  5
288
330
1F
100
AcDbEntity
  8
1
  6
Continuous
 62
     7
100
AcDbLine
 10
-111.059798096815
 20
41.3927824790174
 30
0.0
 11
-110.184798096815
 21
41.3927824790174
 31
0.0
  0
LINE
  5
289
330
1F
100
AcDbEntity
  8
1
  6
Continuous
 62
     7
100
AcDbLine
 10
-110.122298096815
 20
41.3927824790174
 30
0.0
 11
-109.622298096815
 21
41.3927824790174
 31
0.0
  0
LINE
  5
28A
330
1F
100
AcDbEntity
  8
1
  6
Continuous
 62
     7
100
AcDbLine
 10
-111.122298096815
 20
41.3927824790174
 30
0.0
 11
-111.513814890831
 21
41.3927824790174
 31
0.0
  0
LINE
  5
28B
330
1F
100
AcDbEntity
  8
0
  6
Continuous
 62
     7
100
AcDbLine
 10
-111.059798096815
 20
40.2677824790174
 30
0.0
 11
-110.184798096815
 21
40.2677824790174
 31
0.0
  0
LINE
  5
28C
330
1F
100
AcDbEntity
  8
0
  6
Continuous
 62
     7
100
AcDbLine
 10
-110.184798096815
 20
40.51778247901739
 30
0.0
 11
-110.184798096815
 21
40.2677824790174
 31
0.0
  0
LINE
  5
28D
330
1F
100
AcDbEntity
  8
0
  6
Continuous
 62
     7
100
AcDbLine
 10
-110.982724730759
 20
40.3795665774624
 30
0.0
 11
-110.263974730759
 21
40.3795665774624
 31
0.0
  0
LINE
  5
28E
330
1F
100
AcDbEntity
  8
0
  6
Continuous
 62
     7
100
AcDbLine
 10
-111.059798096815
 20
40.2677824790174
 30
0.0
 11
-110.184798096815
 21
40.2677824790174
 31
0.0
  0
LINE
  5
28F
330
1F
100
AcDbEntity
  8
0
  6
Continuous
 62
     7
100
AcDbLine
 10
-111.059798096815
 20
40.2677824790174
 30
0.0
 11
-110.184798096815
 21
40.2677824790174
 31
0.0
  0
LINE
  5
290
330
1F
100
AcDbEntity
  8
0
  6
Continuous
 62
     7
100
AcDbLine
 10
-111.059798096815
 20
40.51778247901739
 30
0.0
 11
-111.059798096815
 21
40.2677824790174
 31
0.0
  0
LINE
  5
291
330
1F
100
AcDbEntity
  8
1
  6
Continuous
 62
     7
100
AcDbLine
 10
-114.480072096815
 20
40.5912824790166
 30
0.0
 11
-114.480072096815
 21
41.31928247901719
 31
0.0
  0
LINE
  5
292
330
1F
100
AcDbEntity
  8
1
  6
Continuous
 62
     7
100
AcDbLine
 10
-114.480072096815
 20
40.5912824790166
 30
0.0
 11
-114.480072096815
 21
41.31928247901719
 31
0.0
  0
LINE
  5
293
330
1F
100
AcDbEntity
  8
1
  6
Continuous
 62
     7
100
AcDbLine
 10
-114.894647496815
 20
40.5912824790164
 30
0.0
 11
-114.894647496815
 21
41.31928247901719
 31
0.0
  0
LINE
  5
294
330
1F
100
AcDbEntity
  8
1
  6
Continuous
 62
     7
100
AcDbLine
 10
-114.894647496815
 20
40.5912824790164
 30
0.0
 11
-114.894647496815
 21
41.31928247901719
 31
0.0
  0
LINE
  5
295
330
1F
100
AcDbEntity
  8
1
  6
Continuous
 62
     7
100
AcDbLine
 10
-115.309798096815
 20
40.51778247901639
 30
0.0
 11
-114.687144096815
 21
40.51778247901739
 31
0.0
  0
LINE
  5
296
330
1F
100
AcDbEntity
  8
0
  6
Continuous
 62
     7
100
AcDbLine
 10
-115.309798096815
 20
40.2677824790174
 30
0.0
 11
-114.872298096815
 21
40.2677824790174
 31
0.0
  0
LINE
  5
297
330
1F
100
AcDbEntity
  8
0
  6
Continuous
 62
     7
100
AcDbLine
 10
-114.872298096815
 20
40.2677824790174
 30
0.0
 11
-114.872298096815
 21
40.51778247901739
 31
0.0
  0
LINE
  5
298
330
1F
100
AcDbEntity
  8
0
  6
Continuous
 62
     7
100
AcDbLine
 10
-115.309798096815
 20
40.3795665774624
 30
0.0
 11
-114.949371462871
 21
40.3795665774624
 31
0.0
  0
LINE
  5
299
330
1F
100
AcDbEntity
  8
1
  6
Continuous
 62
     7
100
AcDbLine
 10
-108.808425750817
 20
15.1817369969912
 30
0.0
 11
-108.808425750817
 21
10.3593750000001
 31
0.0
  0
LINE
  5
29A
330
1F
100
AcDbEntity
  8
1
  6
Continuous
 62
     7
100
AcDbLine
 10
-108.308425750817
 20
9.85937500000011
 30
0.0
 11
-107.701614966059
 21
9.85937500000011
 31
0.0
  0
LINE
  5
29B
330
1F
100
AcDbEntity
  8
1
  6
Continuous
 62
     7
100
AcDbLine
 10
-107.104532409556
 20
15.7240826510032
 30
0.0
 11
-107.051073222639
 21
15.7259494869474
 31
0.0
  0
LINE
  5
29C
330
1F
100
AcDbEntity
  8
1
  6
Continuous
 62
     7
100
AcDbLine
 10
-109.363163765156
 20
15.9815156284979
 30
0.0
 11
-107.104532409556
 21
15.7240826510032
 31
0.0
  0
LINE
  5
29D
330
1F
100
AcDbEntity
  8
1
  6
Continuous
 62
     7
100
AcDbLine
 10
-108.325875499168
 20
15.6814324105007
 30
0.0
 11
-107.104532409556
 21
15.7240826510032
 31
0.0
  0
LINE
  5
29E
330
1F
100
AcDbEntity
  8
1
  6
Continuous
 62
     7
100
AcDbLine
 10
-108.808425750817
 20
15.1817369969912
 30
0.0
 11
-108.808425750817
 21
11.4598281843534
 31
0.0
  0
LINE
  5
29F
330
1F
100
AcDbEntity
  8
1
  6
Continuous
 62
     7
100
AcDbLine
 10
-108.808425750817
 20
11.4598281843534
 30
0.0
 11
-108.808425750817
 21
11.4598281843534
 31
0.0
  0
LINE
  5
2A0
330
1F
100
AcDbEntity
  8
1
  6
Continuous
 62
     7
100
AcDbLine
 10
-103.579798096815
 20
11.9878750000001
 30
0.0
 11
-103.579798096815
 21
12.6093750000001
 31
0.0
  0
LINE
  5
2A1
330
1F
100
AcDbEntity
  8
1
  6
Continuous
 62
     7
100
AcDbLine
 10
-105.937025778738
 20
10.8043750000001
 30
0.0
 11
-104.141798096815
 21
10.8043750000001
 31
0.0
  0
LINE
  5
2A2
330
1F
100
AcDbEntity
  8
1
  6
Continuous
 62
     7
100
AcDbLine
 10
-102.497298096815
 20
12.6093750000001
 30
0.0
 11
-102.497298096815
 21
10.1868750000001
 31
0.0
  0
LINE
  5
2A3
330
1F
100
AcDbEntity
  8
1
  6
Continuous
 62
     7
100
AcDbLine
 10
-103.579798096815
 20
12.6093750000001
 30
0.0
 11
-102.497298096815
 21
12.6093750000001
 31
0.0
  0
LINE
  5
2A4
330
1F
100
AcDbEntity
  8
1
  6
Continuous
 62
     7
100
AcDbLine
 10
-103.579798096815
 20
-18.6683750000002
 30
0.0
 11
-103.579798096815
 21
-17.8976250000002
 31
0.0
  0
LINE
  5
2A5
330
1F
100
AcDbEntity
  8
1
  6
Continuous
 62
     7
100
AcDbLine
 10
-104.141798096815
 20
-17.3356250000002
 30
0.0
 11
-105.937025778738
 21
-17.3356250000002
 31
0.0
  0
LINE
  5
2A6
330
1F
100
AcDbEntity
  8
1
  6
Continuous
 62
     7
100
AcDbLine
 10
-102.497298096815
 20
-16.7181250000002
 30
0.0
 11
-102.497298096815
 21
-19.1406250000002
 31
0.0
  0
LINE
  5
2A7
330
1F
100
AcDbEntity
  8
1
  6
Continuous
 62
     7
100
AcDbLine
 10
-102.497298096815
 20
-19.1406250000002
 30
0.0
 11
-103.579798096815
 21
-19.1406250000002
 31
0.0
  0
LINE
  5
2A8
330
1F
100
AcDbEntity
  8
1
  6
Continuous
 62
     7
100
AcDbLine
 10
-102.497298096815
 20
-3.26562500000004
 30
0.0
 11
-102.497298096815
 21
-16.7181250000002
 31
0.0
  0
LINE
  5
2A9
330
1F
100
AcDbEntity
  8
1
  6
Continuous
 62
     7
100
AcDbLine
 10
-104.141798096815
 20
-17.3356250000002
 30
0.0
 11
-105.937025778738
 21
-17.3356250000002
 31
0.0
  0
LINE
  5
2AA
330
1F
100
AcDbEntity
  8
1
  6
Continuous
 62
     7
100
AcDbLine
 10
-107.701614966056
 20
-16.3906250000002
 30
0.0
 11
-115.309798096815
 21
-16.3906250000002
 31
0.0
  0
LINE
  5
2AB
330
1F
100
AcDbEntity
  8
1
  6
Continuous
 62
     7
100
AcDbLine
 10
-102.497298096815
 20
10.1868750000001
 30
0.0
 11
-102.497298096815
 21
-3.26562500000004
 31
0.0
  0
LINE
  5
2AC
330
1F
100
AcDbEntity
  8
1
  6
Continuous
 62
     7
100
AcDbLine
 10
-103.579798096815
 20
-18.6683750000002
 30
0.0
 11
-103.579798096815
 21
11.9878750000001
 31
0.0
  0
LINE
  5
2AD
330
1F
100
AcDbEntity
  8
1
  6
Continuous
 62
     7
100
AcDbLine
 10
-103.579798096815
 20
11.3663750000001
 30
0.0
 11
-103.579798096815
 21
11.9878750000001
 31
0.0
  0
LINE
  5
2AE
330
1F
100
AcDbEntity
  8
1
  6
Continuous
 62
     7
100
AcDbLine
 10
-103.579798096815
 20
-19.1406250000002
 30
0.0
 11
-103.579798096815
 21
-18.6683750000002
 31
0.0
  0
LINE
  5
2AF
330
1F
100
AcDbEntity
  8
1
  6
Continuous
 62
     7
100
AcDbLine
 10
-107.18271931673
 20
10.2215988466531
 30
0.0
 11
-107.18271931673
 21
-16.7513120229008
 31
0.0
  0
LINE
  5
2B0
330
1F
100
AcDbEntity
  8
0
  6
DASHED
 62
     7
100
AcDbLine
 10
-106.122298096815
 20
-16.7941604513282
 30
0.0
 11
-106.122298096815
 21
-14.3097854513282
 31
0.0
  0
LINE
  5
2B1
330
1F
100
AcDbEntity
  8
0
  6
DASHED
 62
     7
100
AcDbLine
 10
-124.497298096815
 20
-14.3097854513282
 30
0.0
 11
-124.497298096815
 21
-16.7941604513282
 31
0.0
  0
LINE
  5
2B2
330
1F
100
AcDbEntity
  8
1
  6
Continuous
 62
     7
100
AcDbLine
 10
-123.4368768769
 20
-16.7513120229007
 30
0.0
 11
-123.436876876899
 21
10.2215988466531
 31
0.0
  0
LINE
  5
2B3
330
1F
100
AcDbEntity
  8
1
  6
Continuous
 62
     7
100
AcDbLine
 10
-127.039798096815
 20
-18.6683750000002
 30
0.0
 11
-127.039798096815
 21
-19.1406250000002
 31
0.0
  0
LINE
  5
2B4
330
1F
100
AcDbEntity
  8
1
  6
Continuous
 62
     7
100
AcDbLine
 10
-127.039798096815
 20
11.9878750000001
 30
0.0
 11
-127.039798096815
 21
11.3663750000001
 31
0.0
  0
LINE
  5
2B5
330
1F
100
AcDbEntity
  8
1
  6
Continuous
 62
     7
100
AcDbLine
 10
-127.039798096815
 20
11.9878750000001
 30
0.0
 11
-127.039798096815
 21
-18.6683750000002
 31
0.0
  0
LINE
  5
2B6
330
1F
100
AcDbEntity
  8
1
  6
Continuous
 62
     7
100
AcDbLine
 10
-128.122298096815
 20
-3.26562500000004
 30
0.0
 11
-128.122298096815
 21
10.1868750000001
 31
0.0
  0
LINE
  5
2B7
330
1F
100
AcDbEntity
  8
1
  6
Continuous
 62
     7
100
AcDbLine
 10
-115.309798096815
 20
-16.3906250000002
 30
0.0
 11
-122.917981227573
 21
-16.3906250000002
 31
0.0
  0
LINE
  5
2B8
330
1F
100
AcDbEntity
  8
1
  6
Continuous
 62
     7
100
AcDbLine
 10
-124.682570414891
 20
-17.3356250000002
 30
0.0
 11
-126.477798096815
 21
-17.3356250000002
 31
0.0
  0
LINE
  5
2B9
330
1F
100
AcDbEntity
  8
1
  6
Continuous
 62
     7
100
AcDbLine
 10
-128.122298096815
 20
-16.7181250000002
 30
0.0
 11
-128.122298096815
 21
-3.26562500000004
 31
0.0
  0
LINE
  5
2BA
330
1F
100
AcDbEntity
  8
1
  6
Continuous
 62
     7
100
AcDbLine
 10
-127.039798096815
 20
-19.1406250000002
 30
0.0
 11
-128.122298096815
 21
-19.1406250000002
 31
0.0
  0
LINE
  5
2BB
330
1F
100
AcDbEntity
  8
1
  6
Continuous
 62
     7
100
AcDbLine
 10
-128.122298096815
 20
-19.1406250000002
 30
0.0
 11
-128.122298096815
 21
-16.7181250000002
 31
0.0
  0
LINE
  5
2BC
330
1F
100
AcDbEntity
  8
1
  6
Continuous
 62
     7
100
AcDbLine
 10
-124.682570414891
 20
-17.3356250000002
 30
0.0
 11
-126.477798096815
 21
-17.3356250000002
 31
0.0
  0
LINE
  5
2BD
330
1F
100
AcDbEntity
  8
1
  6
Continuous
 62
     7
100
AcDbLine
 10
-127.039798096815
 20
-17.8976250000002
 30
0.0
 11
-127.039798096815
 21
-18.6683750000002
 31
0.0
  0
LINE
  5
2BE
330
1F
100
AcDbEntity
  8
1
  6
Continuous
 62
     7
100
AcDbLine
 10
-128.122298096815
 20
12.6093750000001
 30
0.0
 11
-127.039798096815
 21
12.6093750000001
 31
0.0
  0
LINE
  5
2BF
330
1F
100
AcDbEntity
  8
1
  6
Continuous
 62
     7
100
AcDbLine
 10
-128.122298096815
 20
10.1868750000001
 30
0.0
 11
-128.122298096815
 21
12.6093750000001
 31
0.0
  0
LINE
  5
2C0
330
1F
100
AcDbEntity
  8
1
  6
Continuous
 62
     7
100
AcDbLine
 10
-126.477798096815
 20
10.8043750000001
 30
0.0
 11
-124.682570414891
 21
10.8043750000001
 31
0.0
  0
LINE
  5
2C1
330
1F
100
AcDbEntity
  8
1
  6
Continuous
 62
     7
100
AcDbLine
 10
-127.039798096815
 20
12.6093750000001
 30
0.0
 11
-127.039798096815
 21
11.9878750000001
 31
0.0
  0
LINE
  5
2C2
330
1F
100
AcDbEntity
  8
1
  6
Continuous
 62
     7
100
AcDbLine
 10
-121.811170442812
 20
11.4598281843534
 30
0.0
 11
-121.811170442812
 21
11.4598281843534
 31
0.0
  0
LINE
  5
2C3
330
1F
100
AcDbEntity
  8
1
  6
Continuous
 62
     7
100
AcDbLine
 10
-121.811170442812
 20
11.4598281843534
 30
0.0
 11
-121.811170442813
 21
15.1817369969912
 31
0.0
  0
LINE
  5
2C4
330
1F
100
AcDbEntity
  8
1
  6
Continuous
 62
     7
100
AcDbLine
 10
-123.515063784074
 20
15.7240826510032
 30
0.0
 11
-122.293720694462
 21
15.6814324105008
 31
0.0
  0
LINE
  5
2C5
330
1F
100
AcDbEntity
  8
1
  6
Continuous
 62
     7
100
AcDbLine
 10
-123.515063784074
 20
15.7240826510032
 30
0.0
 11
-121.256432428473
 21
15.9815156284979
 31
0.0
  0
LINE
  5
2C6
330
1F
100
AcDbEntity
  8
1
  6
Continuous
 62
     7
100
AcDbLine
 10
-123.568522970991
 20
15.7259494869474
 30
0.0
 11
-123.515063784074
 21
15.7240826510032
 31
0.0
  0
LINE
  5
2C7
330
1F
100
AcDbEntity
  8
1
  6
Continuous
 62
     7
100
AcDbLine
 10
-122.917981227571
 20
9.85937500000011
 30
0.0
 11
-122.311170442813
 21
9.85937500000011
 31
0.0
  0
LINE
  5
2C8
330
1F
100
AcDbEntity
  8
1
  6
Continuous
 62
     7
100
AcDbLine
 10
-121.811170442813
 20
10.3593750000001
 30
0.0
 11
-121.811170442813
 21
15.1817369969912
 31
0.0
  0
LINE
  5
2C9
330
1F
100
AcDbEntity
  8
1
  6
DASH_CENTER
 62
     2
100
AcDbLine
 10
-72.7568726253078
 20
-18.2656250000002
 30
0.0
 11
-72.7568726253078
 21
8.8593750000001
 31
0.0
  0
LINE
  5
2CA
330
1F
100
AcDbEntity
  8
0
  6
Continuous
 62
     6
100
AcDbLine
 10
-72.7568726253078
 20
-18.2656250000002
 30
0.0
 11
-72.5849976253078
 21
-18.2656250000002
 31
0.0
  0
LINE
  5
2CB
330
1F
100
AcDbEntity
  8
0
  6
Continuous
 62
     7
100
AcDbLine
 10
-115.670224730759
 20
40.3795665774624
 30
0.0
 11
-115.309798096815
 21
40.3795665774624
 31
0.0
  0
LINE
  5
2CC
330
1F
100
AcDbEntity
  8
0
  6
Continuous
 62
     7
100
AcDbLine
 10
-115.747298096815
 20
40.51778247901739
 30
0.0
 11
-115.747298096815
 21
40.2677824790174
 31
0.0
  0
LINE
  5
2CD
330
1F
100
AcDbEntity
  8
0
  6
Continuous
 62
     7
100
AcDbLine
 10
-115.747298096815
 20
40.2677824790174
 30
0.0
 11
-115.309798096815
 21
40.2677824790174
 31
0.0
  0
LINE
  5
2CE
330
1F
100
AcDbEntity
  8
1
  6
Continuous
 62
     7
100
AcDbLine
 10
-115.932452096815
 20
40.51778247901739
 30
0.0
 11
-115.309798096815
 21
40.51778247901639
 31
0.0
  0
LINE
  5
2CF
330
1F
100
AcDbEntity
  8
1
  6
Continuous
 62
     7
100
AcDbLine
 10
-115.724948696815
 20
41.31928247901719
 30
0.0
 11
-115.724948696815
 21
40.5912824790166
 31
0.0
  0
LINE
  5
2D0
330
1F
100
AcDbEntity
  8
1
  6
Continuous
 62
     7
100
AcDbLine
 10
-115.724948696815
 20
41.31928247901719
 30
0.0
 11
-115.724948696815
 21
40.5912824790166
 31
0.0
  0
LINE
  5
2D1
330
1F
100
AcDbEntity
  8
1
  6
Continuous
 62
     7
100
AcDbLine
 10
-116.139524096815
 20
41.31928247901719
 30
0.0
 11
-116.139524096815
 21
40.5912824790166
 31
0.0
  0
LINE
  5
2D2
330
1F
100
AcDbEntity
  8
1
  6
Continuous
 62
     7
100
AcDbLine
 10
-116.139524096815
 20
41.31928247901719
 30
0.0
 11
-116.139524096815
 21
40.5912824790166
 31
0.0
  0
LINE
  5
2D3
330
1F
100
AcDbEntity
  8
0
  6
Continuous
 62
     7
100
AcDbLine
 10
-119.559798096815
 20
40.2677824790174
 30
0.0
 11
-119.559798096815
 21
40.51778247901739
 31
0.0
  0
LINE
  5
2D4
330
1F
100
AcDbEntity
  8
0
  6
Continuous
 62
     7
100
AcDbLine
 10
-120.434798096815
 20
40.2677824790174
 30
0.0
 11
-119.559798096815
 21
40.2677824790174
 31
0.0
  0
LINE
  5
2D5
330
1F
100
AcDbEntity
  8
0
  6
Continuous
 62
     7
100
AcDbLine
 10
-120.434798096815
 20
40.2677824790174
 30
0.0
 11
-119.559798096815
 21
40.2677824790174
 31
0.0
  0
LINE
  5
2D6
330
1F
100
AcDbEntity
  8
0
  6
Continuous
 62
     7
100
AcDbLine
 10
-120.355621462871
 20
40.3795665774624
 30
0.0
 11
-119.636871462871
 21
40.3795665774624
 31
0.0
  0
LINE
  5
2D7
330
1F
100
AcDbEntity
  8
0
  6
Continuous
 62
     7
100
AcDbLine
 10
-120.434798096815
 20
40.2677824790174
 30
0.0
 11
-120.434798096815
 21
40.51778247901739
 31
0.0
  0
LINE
  5
2D8
330
1F
100
AcDbEntity
  8
0
  6
Continuous
 62
     7
100
AcDbLine
 10
-120.434798096815
 20
40.2677824790174
 30
0.0
 11
-119.559798096815
 21
40.2677824790174
 31
0.0
  0
LINE
  5
2D9
330
1F
100
AcDbEntity
  8
1
  6
Continuous
 62
     7
100
AcDbLine
 10
-119.105781302799
 20
41.3927824790174
 30
0.0
 11
-119.497298096815
 21
41.3927824790174
 31
0.0
  0
LINE
  5
2DA
330
1F
100
AcDbEntity
  8
1
  6
Continuous
 62
     7
100
AcDbLine
 10
-120.997298096815
 20
41.3927824790174
 30
0.0
 11
-120.497298096815
 21
41.3927824790174
 31
0.0
  0
LINE
  5
2DB
330
1F
100
AcDbEntity
  8
1
  6
Continuous
 62
     7
100
AcDbLine
 10
-120.434798096815
 20
41.3927824790174
 30
0.0
 11
-119.559798096815
 21
41.3927824790174
 31
0.0
  0
LINE
  5
2DC
330
1F
100
AcDbEntity
  8
1
  6
Continuous
 62
     7
100
AcDbLine
 10
-120.434798096815
 20
40.51778247901739
 30
0.0
 11
-119.559798096815
 21
40.51778247901739
 31
0.0
  0
LINE
  5
2DD
330
1F
100
AcDbEntity
  8
1
  6
Continuous
 62
     7
100
AcDbLine
 10
-119.167572096815
 20
40.5912824790166
 30
0.0
 11
-119.167572096815
 21
41.31928247901719
 31
0.0
  0
LINE
  5
2DE
330
1F
100
AcDbEntity
  8
1
  6
Continuous
 62
     7
100
AcDbLine
 10
-119.582147496815
 20
40.5912824790164
 30
0.0
 11
-119.582147496815
 21
41.3192824790175
 31
0.0
  0
LINE
  5
2DF
330
1F
100
AcDbEntity
  8
1
  6
Continuous
 62
     7
100
AcDbLine
 10
-120.412448696815
 20
41.31928247901719
 30
0.0
 11
-120.412448696815
 21
40.5912824790166
 31
0.0
  0
LINE
  5
2E0
330
1F
100
AcDbEntity
  8
1
  6
Continuous
 62
     7
100
AcDbLine
 10
-120.827024096815
 20
40.5912824790166
 30
0.0
 11
-120.827024096815
 21
41.31928247901719
 31
0.0
  0
LINE
  5
2E1
330
1F
100
AcDbEntity
  8
1
  6
Continuous
 62
     7
100
AcDbLine
 10
-120.619952096815
 20
40.51778247901739
 30
0.0
 11
-119.374644096815
 21
40.51778247901739
 31
0.0
  0
LINE
  5
2E2
330
1F
100
AcDbEntity
  8
1
  6
Continuous
 62
     7
100
AcDbLine
 10
-120.619952096815
 20
41.3927824790174
 30
0.0
 11
-119.374644096815
 21
41.3927824790174
 31
0.0
  0
LINE
  5
2E3
330
1F
100
AcDbEntity
  8
0
  6
Continuous
 62
     7
100
AcDbLine
 10
-73.11729925925178
 20
40.3795665774624
 30
0.0
 11
-72.7568726253078
 21
40.3795665774624
 31
0.0
  0
LINE
  5
2E4
330
1F
100
AcDbEntity
  8
0
  6
Continuous
 62
     7
100
AcDbLine
 10
-73.1943726253078
 20
40.51778247901739
 30
0.0
 11
-73.1943726253078
 21
40.2677824790174
 31
0.0
  0
LINE
  5
2E5
330
1F
100
AcDbEntity
  8
0
  6
Continuous
 62
     7
100
AcDbLine
 10
-73.1943726253078
 20
40.2677824790174
 30
0.0
 11
-72.7568726253078
 21
40.2677824790174
 31
0.0
  0
LINE
  5
2E6
330
1F
100
AcDbEntity
  8
0
  6
Continuous
 62
     7
100
AcDbLine
 10
-77.8818726253078
 20
40.2677824790174
 30
0.0
 11
-77.8818726253078
 21
40.51778247901739
 31
0.0
  0
LINE
  5
2E7
330
1F
100
AcDbEntity
  8
0
  6
Continuous
 62
     7
100
AcDbLine
 10
-77.8818726253078
 20
40.2677824790174
 30
0.0
 11
-77.0068726253078
 21
40.2677824790174
 31
0.0
  0
LINE
  5
2E8
330
1F
100
AcDbEntity
  8
0
  6
Continuous
 62
     7
100
AcDbLine
 10
-77.80269599136379
 20
40.3795665774624
 30
0.0
 11
-77.0839459913638
 21
40.3795665774624
 31
0.0
  0
LINE
  5
2E9
330
1F
100
AcDbEntity
  8
0
  6
Continuous
 62
     7
100
AcDbLine
 10
-77.0068726253078
 20
40.2677824790174
 30
0.0
 11
-77.0068726253078
 21
40.51778247901739
 31
0.0
  0
LINE
  5
2EA
330
1F
100
AcDbEntity
  8
0
  6
Continuous
 62
     7
100
AcDbLine
 10
-77.8818726253078
 20
40.2677824790174
 30
0.0
 11
-77.0068726253078
 21
40.2677824790174
 31
0.0
  0
LINE
  5
2EB
330
1F
100
AcDbEntity
  8
1
  6
Continuous
 62
     7
100
AcDbLine
 10
-122.622298096815
 20
19.7074753531092
 30
0.0
 11
-123.497298096815
 21
19.7074753531092
 31
0.0
  0
LINE
  5
2EC
330
1F
100
AcDbEntity
  8
1
  6
Continuous
 62
     7
100
AcDbLine
 10
-122.622298096815
 20
19.5880085687392
 30
0.0
 11
-123.497298096815
 21
19.5880085687392
 31
0.0
  0
LINE
  5
2ED
330
1F
100
AcDbEntity
  8
1
  6
Continuous
 62
     7
100
AcDbLine
 10
-122.622298096815
 20
19.4685417843702
 30
0.0
 11
-123.497298096815
 21
19.4685417843702
 31
0.0
  0
LINE
  5
2EE
330
1F
100
AcDbEntity
  8
1
  6
Continuous
 62
     7
100
AcDbLine
 10
-123.497298096815
 20
19.8593750000002
 30
0.0
 11
-122.622298096815
 21
19.8593750000002
 31
0.0
  0
LINE
  5
2EF
330
1F
100
AcDbEntity
  8
1
  6
Continuous
 62
     7
100
AcDbLine
 10
-123.442598096815
 20
19.2943750000002
 30
0.0
 11
-123.497298096815
 21
19.3490750000002
 31
0.0
  0
LINE
  5
2F0
330
1F
100
AcDbEntity
  8
1
  6
Continuous
 62
     7
100
AcDbLine
 10
-122.676998096815
 20
19.2943750000002
 30
0.0
 11
-123.442598096815
 21
19.2943750000002
 31
0.0
  0
LINE
  5
2F1
330
1F
100
AcDbEntity
  8
1
  6
Continuous
 62
     7
100
AcDbLine
 10
-123.497298096815
 20
19.3490750000002
 30
0.0
 11
-123.497298096815
 21
19.8593750000002
 31
0.0
  0
LINE
  5
2F2
330
1F
100
AcDbEntity
  8
1
  6
Continuous
 62
     7
100
AcDbLine
 10
-122.622298096815
 20
19.3490750000002
 30
0.0
 11
-123.497298096815
 21
19.3490750000002
 31
0.0
  0
LINE
  5
2F3
330
1F
100
AcDbEntity
  8
1
  6
DASH_CENTER
 62
     7
100
AcDbLine
 10
-123.059798096815
 20
19.7500000000002
 30
0.0
 11
-123.059798096815
 21
20.8437500000002
 31
0.0
  0
LINE
  5
2F4
330
1F
100
AcDbEntity
  8
1
  6
Continuous
 62
     7
100
AcDbLine
 10
-123.682452096815
 20
20.7343750000002
 30
0.0
 11
-122.437144096815
 21
20.7343750000002
 31
0.0
  0
LINE
  5
2F5
330
1F
100
AcDbEntity
  8
1
  6
Continuous
 62
     7
100
AcDbLine
 10
-123.682452096815
 20
19.8593750000002
 30
0.0
 11
-122.437144096815
 21
19.8593750000002
 31
0.0
  0
LINE
  5
2F6
330
1F
100
AcDbEntity
  8
1
  6
Continuous
 62
     7
100
AcDbLine
 10
-123.474948696815
 20
20.660875
 30
0.0
 11
-123.474948696815
 21
19.9328749999994
 31
0.0
  0
LINE
  5
2F7
330
1F
100
AcDbEntity
  8
1
  6
Continuous
 62
     7
100
AcDbLine
 10
-123.889524096815
 20
20.660875
 30
0.0
 11
-123.889524096815
 21
19.9328749999994
 31
0.0
  0
LINE
  5
2F8
330
1F
100
AcDbEntity
  8
1
  6
Continuous
 62
     7
100
AcDbLine
 10
-123.817548096815
 20
24.2943750000003
 30
0.0
 11
-123.438673096815
 21
24.2943750000003
 31
0.0
  0
LINE
  5
2F9
330
1F
100
AcDbEntity
  8
1
  6
Continuous
 62
     7
100
AcDbLine
 10
-123.438673096815
 20
24.2943750000003
 30
0.0
 11
-122.302048096815
 21
24.2943750000003
 31
0.0
  0
LINE
  5
2FA
330
1F
100
AcDbEntity
  8
1
  6
Continuous
 62
     7
100
AcDbLine
 10
-122.491048096815
 20
24.8806250000003
 30
0.0
 11
-123.628548096815
 21
24.8806250000003
 31
0.0
  0
LINE
  5
2FB
330
1F
100
AcDbEntity
  8
1
  6
Continuous
 62
     7
100
AcDbLine
 10
-123.438673096815
 20
24.8071250000003
 30
0.0
 11
-123.438673096815
 21
24.2943750000003
 31
0.0
  0
LINE
  5
2FC
330
1F
100
AcDbEntity
  8
1
  6
Continuous
 62
     7
100
AcDbLine
 10
-123.817548096815
 20
24.8071250000004
 30
0.0
 11
-123.817548096815
 21
24.2943750000003
 31
0.0
  0
LINE
  5
2FD
330
1F
100
AcDbEntity
  8
1
  6
Continuous
 62
     7
100
AcDbLine
 10
-123.319548096815
 20
24.2943750000003
 30
0.0
 11
-122.940673096815
 21
24.2943750000003
 31
0.0
  0
LINE
  5
2FE
330
1F
100
AcDbEntity
  8
1
  6
Continuous
 62
     7
100
AcDbLine
 10
-122.940673096815
 20
24.2943750000003
 30
0.0
 11
-121.804048096815
 21
24.2943750000003
 31
0.0
  0
LINE
  5
2FF
330
1F
100
AcDbEntity
  8
1
  6
Continuous
 62
     7
100
AcDbLine
 10
-121.993048096815
 20
24.8806250000003
 30
0.0
 11
-123.130548096815
 21
24.8806250000003
 31
0.0
  0
LINE
  5
300
330
1F
100
AcDbEntity
  8
1
  6
Continuous
 62
     7
100
AcDbLine
 10
-122.940673096815
 20
24.8071250000003
 30
0.0
 11
-122.940673096815
 21
24.2943750000003
 31
0.0
  0
LINE
  5
301
330
1F
100
AcDbEntity
  8
1
  6
Continuous
 62
     7
100
AcDbLine
 10
-123.319548096815
 20
24.8071250000004
 30
0.0
 11
-123.319548096815
 21
24.2943750000003
 31
0.0
  0
LINE
  5
302
330
1F
100
AcDbEntity
  8
1
  6
Continuous
 62
     7
100
AcDbLine
 10
-122.124298096815
 20
19.7074753531092
 30
0.0
 11
-122.999298096815
 21
19.7074753531092
 31
0.0
  0
LINE
  5
303
330
1F
100
AcDbEntity
  8
1
  6
Continuous
 62
     7
100
AcDbLine
 10
-122.124298096815
 20
19.5880085687392
 30
0.0
 11
-122.999298096815
 21
19.5880085687392
 31
0.0
  0
LINE
  5
304
330
1F
100
AcDbEntity
  8
1
  6
Continuous
 62
     7
100
AcDbLine
 10
-122.124298096815
 20
19.4685417843702
 30
0.0
 11
-122.999298096815
 21
19.4685417843702
 31
0.0
  0
LINE
  5
305
330
1F
100
AcDbEntity
  8
1
  6
Continuous
 62
     7
100
AcDbLine
 10
-122.124298096815
 20
19.8593750000002
 30
0.0
 11
-122.124298096815
 21
19.3490750000002
 31
0.0
  0
LINE
  5
306
330
1F
100
AcDbEntity
  8
1
  6
Continuous
 62
     7
100
AcDbLine
 10
-122.999298096815
 20
19.8593750000002
 30
0.0
 11
-122.124298096815
 21
19.8593750000002
 31
0.0
  0
LINE
  5
307
330
1F
100
AcDbEntity
  8
1
  6
Continuous
 62
     7
100
AcDbLine
 10
-122.944598096815
 20
19.2943750000002
 30
0.0
 11
-122.999298096815
 21
19.3490750000002
 31
0.0
  0
LINE
  5
308
330
1F
100
AcDbEntity
  8
1
  6
Continuous
 62
     7
100
AcDbLine
 10
-122.178998096815
 20
19.2943750000002
 30
0.0
 11
-122.944598096815
 21
19.2943750000002
 31
0.0
  0
LINE
  5
309
330
1F
100
AcDbEntity
  8
1
  6
Continuous
 62
     7
100
AcDbLine
 10
-122.124298096815
 20
19.3490750000002
 30
0.0
 11
-122.178998096815
 21
19.2943750000002
 31
0.0
  0
LINE
  5
30A
330
1F
100
AcDbEntity
  8
1
  6
Continuous
 62
     7
100
AcDbLine
 10
-122.999298096815
 20
19.3490750000002
 30
0.0
 11
-122.999298096815
 21
19.8593750000002
 31
0.0
  0
LINE
  5
30B
330
1F
100
AcDbEntity
  8
1
  6
Continuous
 62
     7
100
AcDbLine
 10
-122.124298096815
 20
19.3490750000002
 30
0.0
 11
-122.999298096815
 21
19.3490750000002
 31
0.0
  0
LINE
  5
30C
330
1F
100
AcDbEntity
  8
1
  6
DASH_CENTER
 62
     7
100
AcDbLine
 10
-122.561798096815
 20
19.7500000000002
 30
0.0
 11
-122.561798096815
 21
20.8437500000002
 31
0.0
  0
LINE
  5
30D
330
1F
100
AcDbEntity
  8
1
  6
Continuous
 62
     7
100
AcDbLine
 10
-123.184452096815
 20
20.7343750000002
 30
0.0
 11
-121.939144096815
 21
20.7343750000002
 31
0.0
  0
LINE
  5
30E
330
1F
100
AcDbEntity
  8
1
  6
Continuous
 62
     7
100
AcDbLine
 10
-123.184452096815
 20
19.8593750000002
 30
0.0
 11
-121.939144096815
 21
19.8593750000002
 31
0.0
  0
LINE
  5
30F
330
1F
100
AcDbEntity
  8
1
  6
Continuous
 62
     7
100
AcDbLine
 10
-122.976948696815
 20
20.660875
 30
0.0
 11
-122.976948696815
 21
19.9328749999994
 31
0.0
  0
LINE
  5
310
330
1F
100
AcDbEntity
  8
1
  6
Continuous
 62
     7
100
AcDbLine
 10
-123.391524096815
 20
20.660875
 30
0.0
 11
-123.391524096815
 21
19.9328749999994
 31
0.0
  0
LINE
  5
311
330
1F
100
AcDbEntity
  8
1
  6
Continuous
 62
     7
100
AcDbLine
 10
-121.174298096815
 20
19.7074753531092
 30
0.0
 11
-122.049298096815
 21
19.7074753531092
 31
0.0
  0
LINE
  5
312
330
1F
100
AcDbEntity
  8
1
  6
Continuous
 62
     7
100
AcDbLine
 10
-121.174298096815
 20
19.5880085687392
 30
0.0
 11
-122.049298096815
 21
19.5880085687392
 31
0.0
  0
LINE
  5
313
330
1F
100
AcDbEntity
  8
1
  6
Continuous
 62
     7
100
AcDbLine
 10
-121.174298096815
 20
19.4685417843702
 30
0.0
 11
-122.049298096815
 21
19.4685417843702
 31
0.0
  0
LINE
  5
314
330
1F
100
AcDbEntity
  8
1
  6
Continuous
 62
     7
100
AcDbLine
 10
-121.174298096815
 20
19.8593750000002
 30
0.0
 11
-121.174298096815
 21
19.3490750000002
 31
0.0
  0
LINE
  5
315
330
1F
100
AcDbEntity
  8
1
  6
Continuous
 62
     7
100
AcDbLine
 10
-122.049298096815
 20
19.8593750000002
 30
0.0
 11
-121.174298096815
 21
19.8593750000002
 31
0.0
  0
LINE
  5
316
330
1F
100
AcDbEntity
  8
1
  6
Continuous
 62
     7
100
AcDbLine
 10
-121.994598096815
 20
19.2943750000002
 30
0.0
 11
-122.049298096815
 21
19.3490750000002
 31
0.0
  0
LINE
  5
317
330
1F
100
AcDbEntity
  8
1
  6
Continuous
 62
     7
100
AcDbLine
 10
-121.228998096815
 20
19.2943750000002
 30
0.0
 11
-121.994598096815
 21
19.2943750000002
 31
0.0
  0
LINE
  5
318
330
1F
100
AcDbEntity
  8
1
  6
Continuous
 62
     7
100
AcDbLine
 10
-121.174298096815
 20
19.3490750000002
 30
0.0
 11
-121.228998096815
 21
19.2943750000002
 31
0.0
  0
LINE
  5
319
330
1F
100
AcDbEntity
  8
1
  6
Continuous
 62
     7
100
AcDbLine
 10
-122.049298096815
 20
19.3490750000002
 30
0.0
 11
-122.049298096815
 21
19.8593750000002
 31
0.0
  0
LINE
  5
31A
330
1F
100
AcDbEntity
  8
1
  6
Continuous
 62
     7
100
AcDbLine
 10
-121.174298096815
 20
19.3490750000002
 30
0.0
 11
-122.049298096815
 21
19.3490750000002
 31
0.0
  0
LINE
  5
31B
330
1F
100
AcDbEntity
  8
1
  6
DASH_CENTER
 62
     7
100
AcDbLine
 10
-121.611798096815
 20
19.7500000000002
 30
0.0
 11
-121.611798096815
 21
20.8437500000002
 31
0.0
  0
LINE
  5
31C
330
1F
100
AcDbEntity
  8
1
  6
Continuous
 62
     7
100
AcDbLine
 10
-122.234452096815
 20
20.7343750000002
 30
0.0
 11
-120.989144096815
 21
20.7343750000002
 31
0.0
  0
LINE
  5
31D
330
1F
100
AcDbEntity
  8
1
  6
Continuous
 62
     7
100
AcDbLine
 10
-122.234452096815
 20
19.8593750000002
 30
0.0
 11
-120.989144096815
 21
19.8593750000002
 31
0.0
  0
LINE
  5
31E
330
1F
100
AcDbEntity
  8
1
  6
Continuous
 62
     7
100
AcDbLine
 10
-120.782072096815
 20
20.660875000001
 30
0.0
 11
-120.782072096815
 21
19.9328749999994
 31
0.0
  0
LINE
  5
31F
330
1F
100
AcDbEntity
  8
1
  6
Continuous
 62
     7
100
AcDbLine
 10
-121.196647496815
 20
19.9328750000002
 30
0.0
 11
-121.196647496815
 21
20.6608750000002
 31
0.0
  0
LINE
  5
320
330
1F
100
AcDbEntity
  8
1
  6
Continuous
 62
     7
100
AcDbLine
 10
-122.026948696815
 20
20.660875
 30
0.0
 11
-122.026948696815
 21
19.9328749999994
 31
0.0
  0
LINE
  5
321
330
1F
100
AcDbEntity
  8
1
  6
Continuous
 62
     7
100
AcDbLine
 10
-122.441524096815
 20
20.660875
 30
0.0
 11
-122.441524096815
 21
19.9328749999994
 31
0.0
  0
LINE
  5
322
330
1F
100
AcDbEntity
  8
1
  6
Continuous
 62
     7
100
AcDbLine
 10
-122.369548096815
 20
24.2943750000003
 30
0.0
 11
-121.990673096815
 21
24.2943750000003
 31
0.0
  0
LINE
  5
323
330
1F
100
AcDbEntity
  8
1
  6
Continuous
 62
     7
100
AcDbLine
 10
-121.232923096815
 20
24.2943750000003
 30
0.0
 11
-120.854048096815
 21
24.2943750000003
 31
0.0
  0
LINE
  5
324
330
1F
100
AcDbEntity
  8
1
  6
Continuous
 62
     7
100
AcDbLine
 10
-121.043048096815
 20
24.8806250000003
 30
0.0
 11
-122.180548096815
 21
24.8806250000003
 31
0.0
  0
LINE
  5
325
330
1F
100
AcDbEntity
  8
1
  6
Continuous
 62
     7
100
AcDbLine
 10
-121.990673096815
 20
24.2943750000003
 30
0.0
 11
-121.232923096815
 21
24.2943750000003
 31
0.0
  0
LINE
  5
326
330
1F
100
AcDbEntity
  8
1
  6
Continuous
 62
     7
100
AcDbLine
 10
-121.990673096815
 20
24.8071250000003
 30
0.0
 11
-121.990673096815
 21
24.2943750000003
 31
0.0
  0
LINE
  5
327
330
1F
100
AcDbEntity
  8
1
  6
Continuous
 62
     7
100
AcDbLine
 10
-121.232923096815
 20
24.8071250000004
 30
0.0
 11
-121.232923096815
 21
24.2943750000003
 31
0.0
  0
LINE
  5
328
330
1F
100
AcDbEntity
  8
1
  6
Continuous
 62
     7
100
AcDbLine
 10
-122.369548096815
 20
24.8071250000004
 30
0.0
 11
-122.369548096815
 21
24.2943750000003
 31
0.0
  0
LINE
  5
329
330
1F
100
AcDbEntity
  8
1
  6
Continuous
 62
     7
100
AcDbLine
 10
-120.854048096815
 20
24.2943750000003
 30
0.0
 11
-120.854048096815
 21
24.8071250000004
 31
0.0
  0
LINE
  5
32A
330
1F
100
AcDbEntity
  8
1
  6
Continuous
 62
     7
100
AcDbLine
 10
-73.37952662530779
 20
40.5099023523384
 30
0.0
 11
-72.8276904934538
 21
40.5099023523384
 31
0.0
  0
LINE
  5
32B
330
1F
100
AcDbEntity
  8
1
  6
Continuous
 62
     7
100
AcDbLine
 10
-73.1720232253076
 20
41.31928247901719
 30
0.0
 11
-73.1720232253078
 21
40.5912824790174
 31
0.0
  0
LINE
  5
32C
330
1F
100
AcDbEntity
  8
1
  6
Continuous
 62
     7
100
AcDbLine
 10
-73.58659862530799
 20
41.31928247901719
 30
0.0
 11
-73.5865986253078
 21
40.5912824790174
 31
0.0
  0
LINE
  5
32D
330
1F
100
AcDbEntity
  8
1
  6
Continuous
 62
     7
100
AcDbLine
 10
-73.1720232253076
 20
41.31140235233929
 30
0.0
 11
-73.1720232253076
 21
40.5834023523386
 31
0.0
  0
LINE
  5
32E
330
1F
100
AcDbEntity
  8
1
  6
Continuous
 62
     7
100
AcDbLine
 10
-73.58659862530799
 20
41.31140235233929
 30
0.0
 11
-73.58659862530799
 21
40.5834023523386
 31
0.0
  0
LINE
  5
32F
330
1F
100
AcDbEntity
  8
1
  6
Continuous
 62
     7
100
AcDbLine
 10
-76.44437262530779
 20
41.3927824790174
 30
0.0
 11
-76.9443726253078
 21
41.3927824790174
 31
0.0
  0
LINE
  5
330
330
1F
100
AcDbEntity
  8
1
  6
Continuous
 62
     7
100
AcDbLine
 10
-77.8818726253078
 20
40.51778247901739
 30
0.0
 11
-77.0068726253078
 21
40.51778247901739
 31
0.0
  0
LINE
  5
331
330
1F
100
AcDbEntity
  8
1
  6
Continuous
 62
     7
100
AcDbLine
 10
-77.8818726253078
 20
41.3927824790174
 30
0.0
 11
-77.0068726253078
 21
41.3927824790174
 31
0.0
  0
LINE
  5
332
330
1F
100
AcDbEntity
  8
1
  6
Continuous
 62
     7
100
AcDbLine
 10
-78.06702662530779
 20
41.3927824790174
 30
0.0
 11
-76.8217186253078
 21
41.3927824790174
 31
0.0
  0
LINE
  5
333
330
1F
100
AcDbEntity
  8
1
  6
Continuous
 62
     7
100
AcDbLine
 10
-78.06702662530779
 20
40.51778247901739
 30
0.0
 11
-76.8217186253078
 21
40.51778247901739
 31
0.0
  0
LINE
  5
334
330
1F
100
AcDbEntity
  8
1
  6
Continuous
 62
     7
100
AcDbLine
 10
-76.6146466253076
 20
41.31928247901719
 30
0.0
 11
-76.6146466253075
 21
40.5912824790166
 31
0.0
  0
LINE
  5
335
330
1F
100
AcDbEntity
  8
1
  6
Continuous
 62
     7
100
AcDbLine
 10
-77.0292220253076
 20
40.5912824790164
 30
0.0
 11
-77.0292220253076
 21
41.3192824790175
 31
0.0
  0
LINE
  5
336
330
1F
100
AcDbEntity
  8
1
  6
Continuous
 62
     7
100
AcDbLine
 10
-77.8595232253076
 20
41.31928247901719
 30
0.0
 11
-77.8595232253076
 21
40.59128247901669
 31
0.0
  0
LINE
  5
337
330
1F
100
AcDbEntity
  8
1
  6
Continuous
 62
     7
100
AcDbLine
 10
-78.27409862530808
 20
41.31928247901719
 30
0.0
 11
-78.27409862530808
 21
40.5912824790166
 31
0.0
  0
LINE
  5
338
330
1F
100
AcDbEntity
  8
1
  6
DASH_CENTER
 62
     7
100
AcDbLine
 10
-72.7568726253078
 20
8.8593750000001
 30
0.0
 11
-72.7568726253078
 21
11.7343750000001
 31
0.0
  0
LINE
  5
339
330
1F
100
AcDbEntity
  8
1
  6
DASH_CENTER
 62
     2
100
AcDbLine
 10
-91.013582860587
 20
-3.26562500000004
 30
0.0
 11
-54.61231615709559
 21
-3.26562500000004
 31
0.0
  0
LINE
  5
33A
330
1F
100
AcDbEntity
  8
1
  6
DASH_CENTER
 62
     7
100
AcDbLine
 10
-72.7568726253078
 20
-20.3517603100642
 30
0.0
 11
-72.7568726253078
 21
-18.2656250000002
 31
0.0
  0
LINE
  5
33B
330
1F
100
AcDbEntity
  8
1
  6
DASH_CENTER
 62
     7
100
AcDbLine
 10
-126.472352795406
 20
-3.26562500000004
 30
0.0
 11
-118.492847240036
 21
-3.26562500000004
 31
0.0
  0
LINE
  5
33C
330
1F
100
AcDbEntity
  8
1
  6
Continuous
 62
     7
100
AcDbLine
 10
-117.439798096815
 20
-11.1885816270431
 30
0.0
 11
-117.439798096815
 21
19.2943750000002
 31
0.0
  0
LINE
  5
33D
330
1F
100
AcDbEntity
  8
1
  6
Continuous
 62
     7
100
AcDbLine
 10
-115.309798096815
 20
20.7343750000002
 30
0.0
 11
-122.186170442813
 21
20.7343750000002
 31
0.0
  0
LINE
  5
33E
330
1F
100
AcDbEntity
  8
1
  6
Continuous
 62
     7
100
AcDbLine
 10
-123.568522970991
 20
15.7259494869474
 30
0.0
 11
-123.515063784074
 21
15.7240826510032
 31
0.0
  0
LINE
  5
33F
330
1F
100
AcDbEntity
  8
1
  6
Continuous
 62
     7
100
AcDbLine
 10
-123.515063784074
 20
15.7240826510032
 30
0.0
 11
-121.256432428473
 21
15.9815156284979
 31
0.0
  0
LINE
  5
340
330
1F
100
AcDbEntity
  8
1
  6
Continuous
 62
     7
100
AcDbLine
 10
-121.256432428473
 20
16.6122343715026
 30
0.0
 11
-123.498225757136
 21
16.8600302344342
 31
0.0
  0
LINE
  5
341
330
1F
100
AcDbEntity
  8
1
  6
Continuous
 62
     7
100
AcDbLine
 10
-124.184798096815
 20
20.7343750000002
 30
0.0
 11
-122.186170442813
 21
20.7343750000002
 31
0.0
  0
LINE
  5
342
330
1F
100
AcDbEntity
  8
1
  6
Continuous
 62
     7
100
AcDbLine
 10
-124.184798096815
 20
22.7343750000002
 30
0.0
 11
-124.184798096815
 21
20.7343750000002
 31
0.0
  0
LINE
  5
343
330
1F
100
AcDbEntity
  8
1
  6
Continuous
 62
     7
100
AcDbLine
 10
-122.293720694462
 20
16.9123175894997
 30
0.0
 11
-123.568522970991
 21
16.867800513053
 31
0.0
  0
LINE
  5
344
330
1F
100
AcDbEntity
  8
1
  6
Continuous
 62
     7
100
AcDbLine
 10
-123.809798096815
 20
16.6179528062982
 30
0.0
 11
-123.809798096815
 21
15.9757971937022
 31
0.0
  0
LINE
  5
345
330
1F
100
AcDbEntity
  8
1
  6
Continuous
 62
     7
100
AcDbLine
 10
-123.515063784074
 20
15.7240826510032
 30
0.0
 11
-122.293720694462
 21
15.6814324105008
 31
0.0
  0
LINE
  5
346
330
1F
100
AcDbEntity
  8
1
  6
Continuous
 62
     7
100
AcDbLine
 10
-121.811170442812
 20
11.4598281843534
 30
0.0
 11
-121.811170442813
 21
15.1817369969912
 31
0.0
  0
LINE
  5
347
330
1F
100
AcDbEntity
  8
1
  6
Continuous
 62
     7
100
AcDbLine
 10
-121.811170442813
 20
17.4120130030092
 30
0.0
 11
-121.811170442813
 21
19.2943750000002
 31
0.0
  0
LINE
  5
348
330
1F
100
AcDbEntity
  8
1
  6
Continuous
 62
     7
100
AcDbLine
 10
-117.689798096814
 20
-5.67502783750374
 30
0.0
 11
-117.689798096815
 21
-10.8293540031791
 31
0.0
  0
LINE
  5
349
330
1F
100
AcDbEntity
  8
1
  6
Continuous
 62
     7
100
AcDbLine
 10
-121.811170442812
 20
11.4598281843534
 30
0.0
 11
-121.811170442812
 21
11.4598281843534
 31
0.0
  0
LINE
  5
34A
330
1F
100
AcDbEntity
  8
1
  6
Continuous
 62
     7
100
AcDbLine
 10
-115.309798096815
 20
-11.1885816270431
 30
0.0
 11
-117.439798096815
 21
-11.1885816270431
 31
0.0
  0
LINE
  5
34B
330
1F
100
AcDbEntity
  8
1
  6
Continuous
 62
     7
100
AcDbLine
 10
-117.576359493504
 20
-11.1885816270431
 30
0.0
 11
-117.439798096815
 21
-11.1885816270431
 31
0.0
  0
LINE
  5
34C
330
1F
100
AcDbEntity
  8
1
  6
Continuous
 62
     7
100
AcDbLine
 10
-117.701203367361
 20
-11.057336055775
 30
0.0
 11
-117.876122792908
 21
-14.5538326548032
 31
0.0
  0
LINE
  5
34D
330
1F
100
AcDbEntity
  8
1
  6
Continuous
 62
     7
100
AcDbLine
 10
-117.689798096815
 20
-10.8293540031791
 30
0.0
 11
-117.701203367361
 21
-11.057336055775
 31
0.0
  0
LINE
  5
34E
330
1F
100
AcDbEntity
  8
1
  6
Continuous
 62
     7
100
AcDbLine
 10
-106.434798096815
 20
20.7343750000002
 30
0.0
 11
-106.434798096815
 21
22.7343750000002
 31
0.0
  0
LINE
  5
34F
330
1F
100
AcDbEntity
  8
1
  6
Continuous
 62
     7
100
AcDbLine
 10
-124.184798096815
 20
22.7343750000002
 30
0.0
 11
-115.309798096815
 21
22.7343750000002
 31
0.0
  0
LINE
  5
350
330
1F
100
AcDbEntity
  8
1
  6
Continuous
 62
     7
100
AcDbLine
 10
-86.91554974933258
 20
15.9815156284979
 30
0.0
 11
-72.7568726253078
 21
15.7343750000002
 31
0.0
  0
LINE
  5
351
330
1F
100
AcDbEntity
  8
1
  6
Continuous
 62
     7
100
AcDbLine
 10
-86.91554974933189
 20
16.6122343715026
 30
0.0
 11
-72.7568726253078
 21
16.8593750000002
 31
0.0
  0
LINE
  5
352
330
1F
100
AcDbEntity
  8
1
  6
Continuous
 62
     7
100
AcDbLine
 10
-89.394030366636
 20
-5.00827524112205
 30
0.0
 11
-89.394030366636
 21
19.3217327413272
 31
0.0
  0
LINE
  5
353
330
1F
100
AcDbEntity
  8
1
  6
Continuous
 62
     7
100
AcDbLine
 10
-72.7568726253078
 20
20.7343750000002
 30
0.0
 11
-89.7690303666359
 21
20.7343750000002
 31
0.0
  0
LINE
  5
354
330
1F
100
AcDbEntity
  8
1
  6
Continuous
 62
     7
100
AcDbLine
 10
-72.7568726253078
 20
22.7343750000002
 30
0.0
 11
-92.25687262530799
 21
22.7343750000002
 31
0.0
  0
LINE
  5
355
330
1F
100
AcDbEntity
  8
1
  6
Continuous
 62
     7
100
AcDbLine
 10
-90.182491386291
 20
20.7343750000002
 30
0.0
 11
-89.7690303666359
 21
20.7343750000002
 31
0.0
  0
LINE
  5
356
330
1F
100
AcDbEntity
  8
1
  6
Continuous
 62
     7
100
AcDbLine
 10
-92.25687262530799
 20
22.7343750000002
 30
0.0
 11
-92.25687262530799
 21
20.7343750000002
 31
0.0
  0
LINE
  5
357
330
1F
100
AcDbEntity
  8
1
  6
DASH_CENTER
 62
     7
100
AcDbLine
 10
-72.7568726253078
 20
-16.3906250000002
 30
0.0
 11
-72.7568726253078
 21
-15.3906250000002
 31
0.0
  0
LINE
  5
358
330
1F
100
AcDbEntity
  8
1
  6
Continuous
 62
     7
100
AcDbLine
 10
-88.9455216012795
 20
-11.188581627043
 30
0.0
 11
-85.9853855987059
 21
-12.2659830213601
 31
0.0
  0
LINE
  5
359
330
1F
100
AcDbEntity
  8
1
  6
Continuous
 62
     7
100
AcDbLine
 10
-92.25687262530799
 20
20.7343750000002
 30
0.0
 11
-90.182491386291
 21
20.7343750000002
 31
0.0
  0
LINE
  5
35A
330
1F
100
AcDbEntity
  8
1
  6
Continuous
 62
     7
100
AcDbLine
 10
-89.93249138629099
 20
-9.77904269586411
 30
0.0
 11
-89.93249138629099
 21
20.4843750000002
 31
0.0
  0
LINE
  5
35B
330
1F
100
AcDbEntity
  8
1
  6
Continuous
 62
     7
100
AcDbLine
 10
-89.394030366636
 20
19.3217327413272
 30
0.0
 11
-89.394030366636
 21
20.3593750000002
 31
0.0
  0
LINE
  5
35C
330
1F
100
AcDbEntity
  8
1
  6
Continuous
 62
     7
100
AcDbLine
 10
-117.279298096815
 20
19.7343750000002
 30
0.0
 11
-115.309798096815
 21
19.7343750000002
 31
0.0
  0
LINE
  5
35D
330
1F
100
AcDbEntity
  8
1
  6
Continuous
 62
     7
100
AcDbLine
 10
-117.689798096815
 20
19.2943750000002
 30
0.0
 11
-117.689798096814
 21
-5.67502783750374
 31
0.0
  0
LINE
  5
35E
330
1F
100
AcDbEntity
  8
1
  6
DASH_CENTER
 62
     7
100
AcDbLine
 10
-72.7568726253078
 20
47.89278247901749
 30
0.0
 11
-72.7568726253078
 21
11.7343750000001
 31
0.0
  0
LINE
  5
35F
330
1F
100
AcDbEntity
  8
1
  6
DASH_CENTER
 62
     7
100
AcDbLine
 10
-123.059798096815
 20
19.7500000000002
 30
0.0
 11
-123.059798096815
 21
20.8437500000002
 31
0.0
  0
LINE
  5
360
330
1F
100
AcDbEntity
  8
1
  6
DASH_CENTER
 62
     7
100
AcDbLine
 10
-122.561798096815
 20
19.7500000000002
 30
0.0
 11
-122.561798096815
 21
20.8437500000002
 31
0.0
  0
LINE
  5
361
330
1F
100
AcDbEntity
  8
1
  6
DASH_CENTER
 62
     7
100
AcDbLine
 10
-121.611798096815
 20
19.7500000000002
 30
0.0
 11
-121.611798096815
 21
20.8437500000002
 31
0.0
  0
LINE
  5
362
330
1F
100
AcDbEntity
  8
1
  6
Continuous
 62
     7
100
AcDbLine
 10
-117.279298096815
 20
19.7074753531092
 30
0.0
 11
-118.154298096815
 21
19.7074753531092
 31
0.0
  0
LINE
  5
363
330
1F
100
AcDbEntity
  8
1
  6
Continuous
 62
     7
100
AcDbLine
 10
-117.279298096815
 20
19.5880085687392
 30
0.0
 11
-118.154298096815
 21
19.5880085687392
 31
0.0
  0
LINE
  5
364
330
1F
100
AcDbEntity
  8
1
  6
Continuous
 62
     7
100
AcDbLine
 10
-117.279298096815
 20
19.4685417843702
 30
0.0
 11
-118.154298096815
 21
19.4685417843702
 31
0.0
  0
LINE
  5
365
330
1F
100
AcDbEntity
  8
1
  6
Continuous
 62
     7
100
AcDbLine
 10
-117.279298096815
 20
19.8593750000002
 30
0.0
 11
-117.279298096815
 21
19.3490750000002
 31
0.0
  0
LINE
  5
366
330
1F
100
AcDbEntity
  8
1
  6
Continuous
 62
     7
100
AcDbLine
 10
-118.154298096815
 20
19.8593750000002
 30
0.0
 11
-117.279298096815
 21
19.8593750000002
 31
0.0
  0
LINE
  5
367
330
1F
100
AcDbEntity
  8
1
  6
Continuous
 62
     7
100
AcDbLine
 10
-118.474548096815
 20
24.2943750000003
 30
0.0
 11
-118.095673096815
 21
24.2943750000003
 31
0.0
  0
LINE
  5
368
330
1F
100
AcDbEntity
  8
1
  6
Continuous
 62
     7
100
AcDbLine
 10
-117.337923096815
 20
24.2943750000003
 30
0.0
 11
-116.959048096815
 21
24.2943750000003
 31
0.0
  0
LINE
  5
369
330
1F
100
AcDbEntity
  8
1
  6
Continuous
 62
     7
100
AcDbLine
 10
-117.148048096815
 20
24.8806250000003
 30
0.0
 11
-118.285548096815
 21
24.8806250000003
 31
0.0
  0
LINE
  5
36A
330
1F
100
AcDbEntity
  8
1
  6
Continuous
 62
     7
100
AcDbLine
 10
-118.099598096815
 20
19.2943750000002
 30
0.0
 11
-118.154298096815
 21
19.3490750000002
 31
0.0
  0
LINE
  5
36B
330
1F
100
AcDbEntity
  8
1
  6
Continuous
 62
     7
100
AcDbLine
 10
-117.333998096815
 20
19.2943750000002
 30
0.0
 11
-118.099598096815
 21
19.2943750000002
 31
0.0
  0
LINE
  5
36C
330
1F
100
AcDbEntity
  8
1
  6
Continuous
 62
     7
100
AcDbLine
 10
-117.279298096815
 20
19.3490750000002
 30
0.0
 11
-117.333998096815
 21
19.2943750000002
 31
0.0
  0
LINE
  5
36D
330
1F
100
AcDbEntity
  8
1
  6
Continuous
 62
     7
100
AcDbLine
 10
-118.154298096815
 20
19.3490750000002
 30
0.0
 11
-118.154298096815
 21
19.8593750000002
 31
0.0
  0
LINE
  5
36E
330
1F
100
AcDbEntity
  8
1
  6
Continuous
 62
     7
100
AcDbLine
 10
-117.279298096815
 20
19.3490750000002
 30
0.0
 11
-118.154298096815
 21
19.3490750000002
 31
0.0
  0
LINE
  5
36F
330
1F
100
AcDbEntity
  8
1
  6
Continuous
 62
     7
100
AcDbLine
 10
-118.095673096815
 20
24.2943750000003
 30
0.0
 11
-117.337923096815
 21
24.2943750000003
 31
0.0
  0
LINE
  5
370
330
1F
100
AcDbEntity
  8
1
  6
Continuous
 62
     7
100
AcDbLine
 10
-118.095673096815
 20
24.8071250000003
 30
0.0
 11
-118.095673096815
 21
24.2943750000003
 31
0.0
  0
LINE
  5
371
330
1F
100
AcDbEntity
  8
1
  6
Continuous
 62
     7
100
AcDbLine
 10
-117.337923096815
 20
24.8071250000004
 30
0.0
 11
-117.337923096815
 21
24.2943750000003
 31
0.0
  0
LINE
  5
372
330
1F
100
AcDbEntity
  8
1
  6
Continuous
 62
     7
100
AcDbLine
 10
-118.474548096815
 20
24.8071250000004
 30
0.0
 11
-118.474548096815
 21
24.2943750000003
 31
0.0
  0
LINE
  5
373
330
1F
100
AcDbEntity
  8
1
  6
Continuous
 62
     7
100
AcDbLine
 10
-116.959048096815
 20
24.2943750000003
 30
0.0
 11
-116.959048096815
 21
24.8071250000004
 31
0.0
  0
LINE
  5
374
330
1F
100
AcDbEntity
  8
1
  6
DASH_CENTER
 62
     7
100
AcDbLine
 10
-117.716798096815
 20
19.7500000000002
 30
0.0
 11
-117.716798096815
 21
20.8437500000002
 31
0.0
  0
LINE
  5
375
330
1F
100
AcDbEntity
  8
1
  6
Continuous
 62
     7
100
AcDbLine
 10
-118.339452096815
 20
20.7343750000002
 30
0.0
 11
-117.094144096815
 21
20.7343750000002
 31
0.0
  0
LINE
  5
376
330
1F
100
AcDbEntity
  8
1
  6
Continuous
 62
     7
100
AcDbLine
 10
-118.339452096815
 20
19.8593750000002
 30
0.0
 11
-117.094144096815
 21
19.8593750000002
 31
0.0
  0
LINE
  5
377
330
1F
100
AcDbEntity
  8
1
  6
Continuous
 62
     7
100
AcDbLine
 10
-116.887072096815
 20
20.660875000001
 30
0.0
 11
-116.887072096815
 21
19.9328749999994
 31
0.0
  0
LINE
  5
378
330
1F
100
AcDbEntity
  8
1
  6
Continuous
 62
     7
100
AcDbLine
 10
-117.301647496815
 20
19.9328750000002
 30
0.0
 11
-117.301647496815
 21
20.6608750000002
 31
0.0
  0
LINE
  5
379
330
1F
100
AcDbEntity
  8
1
  6
Continuous
 62
     7
100
AcDbLine
 10
-118.131948696815
 20
20.660875
 30
0.0
 11
-118.131948696815
 21
19.9328749999994
 31
0.0
  0
LINE
  5
37A
330
1F
100
AcDbEntity
  8
1
  6
Continuous
 62
     7
100
AcDbLine
 10
-118.546524096815
 20
20.660875
 30
0.0
 11
-118.546524096815
 21
19.9328749999994
 31
0.0
  0
LINE
  5
37B
330
1F
100
AcDbEntity
  8
1
  6
Continuous
 62
     7
100
AcDbLine
 10
-92.0015986253082
 20
20.660875
 30
0.0
 11
-92.0015986253082
 21
19.9328749999994
 31
0.0
  0
LINE
  5
37C
330
1F
100
AcDbEntity
  8
1
  6
Continuous
 62
     7
100
AcDbLine
 10
-91.58702322530819
 20
20.6608750000002
 30
0.0
 11
-91.58702322530819
 21
19.9328750000002
 31
0.0
  0
LINE
  5
37D
330
1F
100
AcDbEntity
  8
1
  6
Continuous
 62
     7
100
AcDbLine
 10
-90.75672202530819
 20
19.9328749999994
 30
0.0
 11
-90.75672202530819
 21
20.660875000001
 31
0.0
  0
LINE
  5
37E
330
1F
100
AcDbEntity
  8
1
  6
Continuous
 62
     7
100
AcDbLine
 10
-90.34214662530779
 20
20.660875000001
 30
0.0
 11
-90.34214662530779
 21
19.9328749999994
 31
0.0
  0
LINE
  5
37F
330
1F
100
AcDbEntity
  8
1
  6
Continuous
 62
     7
100
AcDbLine
 10
-91.794526625308
 20
19.8593750000002
 30
0.0
 11
-90.54921862530799
 21
19.8593750000002
 31
0.0
  0
LINE
  5
380
330
1F
100
AcDbEntity
  8
1
  6
Continuous
 62
     7
100
AcDbLine
 10
-91.794526625308
 20
20.7343750000002
 30
0.0
 11
-90.54921862530799
 21
20.7343750000002
 31
0.0
  0
LINE
  5
381
330
1F
100
AcDbEntity
  8
1
  6
DASH_CENTER
 62
     7
100
AcDbLine
 10
-91.17187262530798
 20
19.7500000000002
 30
0.0
 11
-91.17187262530798
 21
20.8437500000002
 31
0.0
  0
LINE
  5
382
330
1F
100
AcDbEntity
  8
1
  6
Continuous
 62
     7
100
AcDbLine
 10
-90.414122625308
 20
24.2943750000003
 30
0.0
 11
-90.41412262530788
 21
24.8071250000004
 31
0.0
  0
LINE
  5
383
330
1F
100
AcDbEntity
  8
1
  6
Continuous
 62
     7
100
AcDbLine
 10
-91.9296226253081
 20
24.8071250000004
 30
0.0
 11
-91.92962262530799
 21
24.2943750000003
 31
0.0
  0
LINE
  5
384
330
1F
100
AcDbEntity
  8
1
  6
Continuous
 62
     7
100
AcDbLine
 10
-91.92962262530799
 20
24.2943750000003
 30
0.0
 11
-91.55074762530799
 21
24.2943750000003
 31
0.0
  0
LINE
  5
385
330
1F
100
AcDbEntity
  8
1
  6
Continuous
 62
     7
100
AcDbLine
 10
-90.7929976253081
 20
24.8071250000003
 30
0.0
 11
-90.792997625308
 21
24.2943750000003
 31
0.0
  0
LINE
  5
386
330
1F
100
AcDbEntity
  8
1
  6
Continuous
 62
     7
100
AcDbLine
 10
-91.55074762530789
 20
24.8071250000004
 30
0.0
 11
-91.55074762530799
 21
24.2943750000003
 31
0.0
  0
LINE
  5
387
330
1F
100
AcDbEntity
  8
1
  6
Continuous
 62
     7
100
AcDbLine
 10
-91.55074762530799
 20
24.2943750000003
 30
0.0
 11
-90.792997625308
 21
24.2943750000003
 31
0.0
  0
LINE
  5
388
330
1F
100
AcDbEntity
  8
1
  6
Continuous
 62
     7
100
AcDbLine
 10
-90.792997625308
 20
24.2943750000003
 30
0.0
 11
-90.414122625308
 21
24.2943750000003
 31
0.0
  0
LINE
  5
389
330
1F
100
AcDbEntity
  8
1
  6
Continuous
 62
     7
100
AcDbLine
 10
-90.734372625308
 20
19.3490750000002
 30
0.0
 11
-91.609372625308
 21
19.3490750000002
 31
0.0
  0
LINE
  5
38A
330
1F
100
AcDbEntity
  8
1
  6
Continuous
 62
     7
100
AcDbLine
 10
-91.609372625308
 20
19.3490750000002
 30
0.0
 11
-91.609372625308
 21
19.8593750000002
 31
0.0
  0
LINE
  5
38B
330
1F
100
AcDbEntity
  8
1
  6
Continuous
 62
     7
100
AcDbLine
 10
-90.734372625308
 20
19.3490750000002
 30
0.0
 11
-90.78907262530798
 21
19.2943750000002
 31
0.0
  0
LINE
  5
38C
330
1F
100
AcDbEntity
  8
1
  6
Continuous
 62
     7
100
AcDbLine
 10
-90.78907262530798
 20
19.2943750000002
 30
0.0
 11
-91.554672625308
 21
19.2943750000002
 31
0.0
  0
LINE
  5
38D
330
1F
100
AcDbEntity
  8
1
  6
Continuous
 62
     7
100
AcDbLine
 10
-91.554672625308
 20
19.2943750000002
 30
0.0
 11
-91.609372625308
 21
19.3490750000002
 31
0.0
  0
LINE
  5
38E
330
1F
100
AcDbEntity
  8
1
  6
Continuous
 62
     7
100
AcDbLine
 10
-90.60312262530799
 20
24.8806250000003
 30
0.0
 11
-91.740622625308
 21
24.8806250000003
 31
0.0
  0
LINE
  5
38F
330
1F
100
AcDbEntity
  8
1
  6
Continuous
 62
     7
100
AcDbLine
 10
-91.609372625308
 20
19.8593750000002
 30
0.0
 11
-90.734372625308
 21
19.8593750000002
 31
0.0
  0
LINE
  5
390
330
1F
100
AcDbEntity
  8
1
  6
Continuous
 62
     7
100
AcDbLine
 10
-90.734372625308
 20
19.8593750000002
 30
0.0
 11
-90.734372625308
 21
19.3490750000002
 31
0.0
  0
LINE
  5
391
330
1F
100
AcDbEntity
  8
1
  6
Continuous
 62
     7
100
AcDbLine
 10
-90.734372625308
 20
19.4685417843702
 30
0.0
 11
-91.609372625308
 21
19.4685417843702
 31
0.0
  0
LINE
  5
392
330
1F
100
AcDbEntity
  8
1
  6
Continuous
 62
     7
100
AcDbLine
 10
-90.734372625308
 20
19.5880085687392
 30
0.0
 11
-91.609372625308
 21
19.5880085687392
 31
0.0
  0
LINE
  5
393
330
1F
100
AcDbEntity
  8
1
  6
Continuous
 62
     7
100
AcDbLine
 10
-90.734372625308
 20
19.7074753531092
 30
0.0
 11
-91.609372625308
 21
19.7074753531092
 31
0.0
  0
LINE
  5
394
330
1F
100
AcDbEntity
  8
1
  6
Continuous
 62
     7
100
AcDbLine
 10
-88.546372625308
 20
19.7074753531092
 30
0.0
 11
-89.42137262530798
 21
19.7074753531092
 31
0.0
  0
LINE
  5
395
330
1F
100
AcDbEntity
  8
1
  6
Continuous
 62
     7
100
AcDbLine
 10
-88.546372625308
 20
19.5880085687392
 30
0.0
 11
-89.42137262530798
 21
19.5880085687392
 31
0.0
  0
LINE
  5
396
330
1F
100
AcDbEntity
  8
1
  6
Continuous
 62
     7
100
AcDbLine
 10
-88.546372625308
 20
19.4685417843702
 30
0.0
 11
-89.42137262530798
 21
19.4685417843702
 31
0.0
  0
LINE
  5
397
330
1F
100
AcDbEntity
  8
1
  6
Continuous
 62
     7
100
AcDbLine
 10
-88.546372625308
 20
19.8593750000002
 30
0.0
 11
-88.546372625308
 21
19.3490750000002
 31
0.0
  0
LINE
  5
398
330
1F
100
AcDbEntity
  8
1
  6
Continuous
 62
     7
100
AcDbLine
 10
-89.42137262530798
 20
19.8593750000002
 30
0.0
 11
-88.546372625308
 21
19.8593750000002
 31
0.0
  0
LINE
  5
399
330
1F
100
AcDbEntity
  8
1
  6
Continuous
 62
     7
100
AcDbLine
 10
-89.741622625308
 20
24.2943750000003
 30
0.0
 11
-89.36274762530799
 21
24.2943750000003
 31
0.0
  0
LINE
  5
39A
330
1F
100
AcDbEntity
  8
1
  6
Continuous
 62
     7
100
AcDbLine
 10
-88.60499762530799
 20
24.2943750000003
 30
0.0
 11
-88.22612262530798
 21
24.2943750000003
 31
0.0
  0
LINE
  5
39B
330
1F
100
AcDbEntity
  8
1
  6
Continuous
 62
     7
100
AcDbLine
 10
-88.41512262530789
 20
24.8806250000003
 30
0.0
 11
-89.552622625308
 21
24.8806250000003
 31
0.0
  0
LINE
  5
39C
330
1F
100
AcDbEntity
  8
1
  6
Continuous
 62
     7
100
AcDbLine
 10
-89.36667262530798
 20
19.2943750000002
 30
0.0
 11
-89.42137262530798
 21
19.3490750000002
 31
0.0
  0
LINE
  5
39D
330
1F
100
AcDbEntity
  8
1
  6
Continuous
 62
     7
100
AcDbLine
 10
-88.60107262530799
 20
19.2943750000002
 30
0.0
 11
-89.36667262530798
 21
19.2943750000002
 31
0.0
  0
LINE
  5
39E
330
1F
100
AcDbEntity
  8
1
  6
Continuous
 62
     7
100
AcDbLine
 10
-88.546372625308
 20
19.3490750000002
 30
0.0
 11
-88.60107262530799
 21
19.2943750000002
 31
0.0
  0
LINE
  5
39F
330
1F
100
AcDbEntity
  8
1
  6
Continuous
 62
     7
100
AcDbLine
 10
-89.42137262530798
 20
19.3490750000002
 30
0.0
 11
-89.42137262530798
 21
19.8593750000002
 31
0.0
  0
LINE
  5
3A0
330
1F
100
AcDbEntity
  8
1
  6
Continuous
 62
     7
100
AcDbLine
 10
-88.546372625308
 20
19.3490750000002
 30
0.0
 11
-89.42137262530798
 21
19.3490750000002
 31
0.0
  0
LINE
  5
3A1
330
1F
100
AcDbEntity
  8
1
  6
Continuous
 62
     7
100
AcDbLine
 10
-89.36274762530799
 20
24.2943750000003
 30
0.0
 11
-88.60499762530799
 21
24.2943750000003
 31
0.0
  0
LINE
  5
3A2
330
1F
100
AcDbEntity
  8
1
  6
Continuous
 62
     7
100
AcDbLine
 10
-89.3627476253079
 20
24.8071250000003
 30
0.0
 11
-89.36274762530799
 21
24.2943750000003
 31
0.0
  0
LINE
  5
3A3
330
1F
100
AcDbEntity
  8
1
  6
Continuous
 62
     7
100
AcDbLine
 10
-88.60499762530799
 20
24.8071250000004
 30
0.0
 11
-88.60499762530799
 21
24.2943750000003
 31
0.0
  0
LINE
  5
3A4
330
1F
100
AcDbEntity
  8
1
  6
Continuous
 62
     7
100
AcDbLine
 10
-89.74162262530808
 20
24.8071250000004
 30
0.0
 11
-89.741622625308
 21
24.2943750000003
 31
0.0
  0
LINE
  5
3A5
330
1F
100
AcDbEntity
  8
1
  6
Continuous
 62
     7
100
AcDbLine
 10
-88.22612262530798
 20
24.2943750000003
 30
0.0
 11
-88.2261226253079
 21
24.8071250000004
 31
0.0
  0
LINE
  5
3A6
330
1F
100
AcDbEntity
  8
1
  6
DASH_CENTER
 62
     7
100
AcDbLine
 10
-88.98387262530798
 20
19.7500000000002
 30
0.0
 11
-88.98387262530798
 21
20.8437500000002
 31
0.0
  0
LINE
  5
3A7
330
1F
100
AcDbEntity
  8
1
  6
Continuous
 62
     7
100
AcDbLine
 10
-89.606526625308
 20
20.7343750000002
 30
0.0
 11
-88.361218625308
 21
20.7343750000002
 31
0.0
  0
LINE
  5
3A8
330
1F
100
AcDbEntity
  8
1
  6
Continuous
 62
     7
100
AcDbLine
 10
-89.606526625308
 20
19.8593750000002
 30
0.0
 11
-88.361218625308
 21
19.8593750000002
 31
0.0
  0
LINE
  5
3A9
330
1F
100
AcDbEntity
  8
1
  6
Continuous
 62
     7
100
AcDbLine
 10
-88.15414662530769
 20
20.660875000001
 30
0.0
 11
-88.15414662530769
 21
19.9328749999994
 31
0.0
  0
LINE
  5
3AA
330
1F
100
AcDbEntity
  8
1
  6
Continuous
 62
     7
100
AcDbLine
 10
-88.56872202530779
 20
19.9328750000002
 30
0.0
 11
-88.56872202530779
 21
20.6608750000002
 31
0.0
  0
LINE
  5
3AB
330
1F
100
AcDbEntity
  8
1
  6
Continuous
 62
     7
100
AcDbLine
 10
-89.3990232253077
 20
20.660875
 30
0.0
 11
-89.3990232253077
 21
19.9328749999995
 31
0.0
  0
LINE
  5
3AC
330
1F
100
AcDbEntity
  8
1
  6
Continuous
 62
     7
100
AcDbLine
 10
-89.8135986253082
 20
20.660875
 30
0.0
 11
-89.8135986253082
 21
19.9328749999994
 31
0.0
  0
LINE
  5
3AD
330
1F
100
AcDbEntity
  8
1
  6
Continuous
 62
     7
100
AcDbLine
 10
-85.38459862530809
 20
20.660875
 30
0.0
 11
-85.38459862530809
 21
19.9328749999994
 31
0.0
  0
LINE
  5
3AE
330
1F
100
AcDbEntity
  8
1
  6
Continuous
 62
     7
100
AcDbLine
 10
-84.97002322530798
 20
20.6608750000002
 30
0.0
 11
-84.97002322530798
 21
19.9328750000002
 31
0.0
  0
LINE
  5
3AF
330
1F
100
AcDbEntity
  8
1
  6
Continuous
 62
     7
100
AcDbLine
 10
-84.13972202530819
 20
19.9328749999994
 30
0.0
 11
-84.13972202530819
 21
20.660875000001
 31
0.0
  0
LINE
  5
3B0
330
1F
100
AcDbEntity
  8
1
  6
Continuous
 62
     7
100
AcDbLine
 10
-83.7251466253077
 20
20.660875000001
 30
0.0
 11
-83.7251466253077
 21
19.9328749999994
 31
0.0
  0
LINE
  5
3B1
330
1F
100
AcDbEntity
  8
1
  6
Continuous
 62
     7
100
AcDbLine
 10
-85.17752662530789
 20
19.8593750000002
 30
0.0
 11
-83.9322186253079
 21
19.8593750000002
 31
0.0
  0
LINE
  5
3B2
330
1F
100
AcDbEntity
  8
1
  6
Continuous
 62
     7
100
AcDbLine
 10
-85.17752662530789
 20
20.7343750000002
 30
0.0
 11
-83.9322186253079
 21
20.7343750000002
 31
0.0
  0
LINE
  5
3B3
330
1F
100
AcDbEntity
  8
1
  6
DASH_CENTER
 62
     7
100
AcDbLine
 10
-84.5548726253079
 20
19.7500000000002
 30
0.0
 11
-84.5548726253079
 21
20.8437500000002
 31
0.0
  0
LINE
  5
3B4
330
1F
100
AcDbEntity
  8
1
  6
Continuous
 62
     7
100
AcDbLine
 10
-83.79712262530789
 20
24.2943750000003
 30
0.0
 11
-83.7971226253078
 21
24.8071250000004
 31
0.0
  0
LINE
  5
3B5
330
1F
100
AcDbEntity
  8
1
  6
Continuous
 62
     7
100
AcDbLine
 10
-85.31262262530798
 20
24.8071250000004
 30
0.0
 11
-85.3126226253079
 21
24.2943750000003
 31
0.0
  0
LINE
  5
3B6
330
1F
100
AcDbEntity
  8
1
  6
Continuous
 62
     7
100
AcDbLine
 10
-85.3126226253079
 20
24.2943750000003
 30
0.0
 11
-84.9337476253079
 21
24.2943750000003
 31
0.0
  0
LINE
  5
3B7
330
1F
100
AcDbEntity
  8
1
  6
Continuous
 62
     7
100
AcDbLine
 10
-84.17599762530799
 20
24.8071250000003
 30
0.0
 11
-84.1759976253079
 21
24.2943750000003
 31
0.0
  0
LINE
  5
3B8
330
1F
100
AcDbEntity
  8
1
  6
Continuous
 62
     7
100
AcDbLine
 10
-84.93374762530779
 20
24.8071250000004
 30
0.0
 11
-84.9337476253079
 21
24.2943750000003
 31
0.0
  0
LINE
  5
3B9
330
1F
100
AcDbEntity
  8
1
  6
Continuous
 62
     7
100
AcDbLine
 10
-84.9337476253079
 20
24.2943750000003
 30
0.0
 11
-84.1759976253079
 21
24.2943750000003
 31
0.0
  0
LINE
  5
3BA
330
1F
100
AcDbEntity
  8
1
  6
Continuous
 62
     7
100
AcDbLine
 10
-84.1759976253079
 20
24.2943750000003
 30
0.0
 11
-83.79712262530789
 21
24.2943750000003
 31
0.0
  0
LINE
  5
3BB
330
1F
100
AcDbEntity
  8
1
  6
Continuous
 62
     7
100
AcDbLine
 10
-84.11737262530788
 20
19.3490750000002
 30
0.0
 11
-84.99237262530788
 21
19.3490750000002
 31
0.0
  0
LINE
  5
3BC
330
1F
100
AcDbEntity
  8
1
  6
Continuous
 62
     7
100
AcDbLine
 10
-84.99237262530788
 20
19.3490750000002
 30
0.0
 11
-84.99237262530788
 21
19.8593750000002
 31
0.0
  0
LINE
  5
3BD
330
1F
100
AcDbEntity
  8
1
  6
Continuous
 62
     7
100
AcDbLine
 10
-84.11737262530788
 20
19.3490750000002
 30
0.0
 11
-84.1720726253079
 21
19.2943750000002
 31
0.0
  0
LINE
  5
3BE
330
1F
100
AcDbEntity
  8
1
  6
Continuous
 62
     7
100
AcDbLine
 10
-84.1720726253079
 20
19.2943750000002
 30
0.0
 11
-84.9376726253079
 21
19.2943750000002
 31
0.0
  0
LINE
  5
3BF
330
1F
100
AcDbEntity
  8
1
  6
Continuous
 62
     7
100
AcDbLine
 10
-84.9376726253079
 20
19.2943750000002
 30
0.0
 11
-84.99237262530788
 21
19.3490750000002
 31
0.0
  0
LINE
  5
3C0
330
1F
100
AcDbEntity
  8
1
  6
Continuous
 62
     7
100
AcDbLine
 10
-83.9861226253079
 20
24.8806250000003
 30
0.0
 11
-85.12362262530789
 21
24.8806250000003
 31
0.0
  0
LINE
  5
3C1
330
1F
100
AcDbEntity
  8
1
  6
Continuous
 62
     7
100
AcDbLine
 10
-84.99237262530788
 20
19.8593750000002
 30
0.0
 11
-84.11737262530788
 21
19.8593750000002
 31
0.0
  0
LINE
  5
3C2
330
1F
100
AcDbEntity
  8
1
  6
Continuous
 62
     7
100
AcDbLine
 10
-84.11737262530788
 20
19.8593750000002
 30
0.0
 11
-84.11737262530788
 21
19.3490750000002
 31
0.0
  0
LINE
  5
3C3
330
1F
100
AcDbEntity
  8
1
  6
Continuous
 62
     7
100
AcDbLine
 10
-84.11737262530788
 20
19.4685417843702
 30
0.0
 11
-84.99237262530788
 21
19.4685417843702
 31
0.0
  0
LINE
  5
3C4
330
1F
100
AcDbEntity
  8
1
  6
Continuous
 62
     7
100
AcDbLine
 10
-84.11737262530788
 20
19.5880085687392
 30
0.0
 11
-84.99237262530788
 21
19.5880085687392
 31
0.0
  0
LINE
  5
3C5
330
1F
100
AcDbEntity
  8
1
  6
Continuous
 62
     7
100
AcDbLine
 10
-84.11737262530788
 20
19.7074753531092
 30
0.0
 11
-84.99237262530788
 21
19.7074753531092
 31
0.0
  0
LINE
  5
3C6
330
1F
100
AcDbEntity
  8
1
  6
Continuous
 62
     7
100
AcDbLine
 10
-79.39237262530789
 20
19.7074753531092
 30
0.0
 11
-80.2673726253079
 21
19.7074753531092
 31
0.0
  0
LINE
  5
3C7
330
1F
100
AcDbEntity
  8
1
  6
Continuous
 62
     7
100
AcDbLine
 10
-79.39237262530789
 20
19.5880085687392
 30
0.0
 11
-80.2673726253079
 21
19.5880085687392
 31
0.0
  0
LINE
  5
3C8
330
1F
100
AcDbEntity
  8
1
  6
Continuous
 62
     7
100
AcDbLine
 10
-79.39237262530789
 20
19.4685417843702
 30
0.0
 11
-80.2673726253079
 21
19.4685417843702
 31
0.0
  0
LINE
  5
3C9
330
1F
100
AcDbEntity
  8
1
  6
Continuous
 62
     7
100
AcDbLine
 10
-79.39237262530789
 20
19.8593750000002
 30
0.0
 11
-79.39237262530789
 21
19.3490750000002
 31
0.0
  0
LINE
  5
3CA
330
1F
100
AcDbEntity
  8
1
  6
Continuous
 62
     7
100
AcDbLine
 10
-80.2673726253079
 20
19.8593750000002
 30
0.0
 11
-79.39237262530789
 21
19.8593750000002
 31
0.0
  0
LINE
  5
3CB
330
1F
100
AcDbEntity
  8
1
  6
Continuous
 62
     7
100
AcDbLine
 10
-80.5876226253079
 20
24.2943750000003
 30
0.0
 11
-80.2087476253079
 21
24.2943750000003
 31
0.0
  0
LINE
  5
3CC
330
1F
100
AcDbEntity
  8
1
  6
Continuous
 62
     7
100
AcDbLine
 10
-79.45099762530789
 20
24.2943750000003
 30
0.0
 11
-79.07212262530788
 21
24.2943750000003
 31
0.0
  0
LINE
  5
3CD
330
1F
100
AcDbEntity
  8
1
  6
Continuous
 62
     7
100
AcDbLine
 10
-79.2611226253078
 20
24.8806250000003
 30
0.0
 11
-80.3986226253079
 21
24.8806250000003
 31
0.0
  0
LINE
  5
3CE
330
1F
100
AcDbEntity
  8
1
  6
Continuous
 62
     7
100
AcDbLine
 10
-80.21267262530789
 20
19.2943750000002
 30
0.0
 11
-80.2673726253079
 21
19.3490750000002
 31
0.0
  0
LINE
  5
3CF
330
1F
100
AcDbEntity
  8
1
  6
Continuous
 62
     7
100
AcDbLine
 10
-79.4470726253079
 20
19.2943750000002
 30
0.0
 11
-80.21267262530789
 21
19.2943750000002
 31
0.0
  0
LINE
  5
3D0
330
1F
100
AcDbEntity
  8
1
  6
Continuous
 62
     7
100
AcDbLine
 10
-79.39237262530789
 20
19.3490750000002
 30
0.0
 11
-79.4470726253079
 21
19.2943750000002
 31
0.0
  0
LINE
  5
3D1
330
1F
100
AcDbEntity
  8
1
  6
Continuous
 62
     7
100
AcDbLine
 10
-80.2673726253079
 20
19.3490750000002
 30
0.0
 11
-80.2673726253079
 21
19.8593750000002
 31
0.0
  0
LINE
  5
3D2
330
1F
100
AcDbEntity
  8
1
  6
Continuous
 62
     7
100
AcDbLine
 10
-79.39237262530789
 20
19.3490750000002
 30
0.0
 11
-80.2673726253079
 21
19.3490750000002
 31
0.0
  0
LINE
  5
3D3
330
1F
100
AcDbEntity
  8
1
  6
Continuous
 62
     7
100
AcDbLine
 10
-80.2087476253079
 20
24.2943750000003
 30
0.0
 11
-79.45099762530789
 21
24.2943750000003
 31
0.0
  0
LINE
  5
3D4
330
1F
100
AcDbEntity
  8
1
  6
Continuous
 62
     7
100
AcDbLine
 10
-80.2087476253078
 20
24.8071250000003
 30
0.0
 11
-80.2087476253079
 21
24.2943750000003
 31
0.0
  0
LINE
  5
3D5
330
1F
100
AcDbEntity
  8
1
  6
Continuous
 62
     7
100
AcDbLine
 10
-79.45099762530799
 20
24.8071250000004
 30
0.0
 11
-79.45099762530789
 21
24.2943750000003
 31
0.0
  0
LINE
  5
3D6
330
1F
100
AcDbEntity
  8
1
  6
Continuous
 62
     7
100
AcDbLine
 10
-80.587622625308
 20
24.8071250000004
 30
0.0
 11
-80.5876226253079
 21
24.2943750000003
 31
0.0
  0
LINE
  5
3D7
330
1F
100
AcDbEntity
  8
1
  6
Continuous
 62
     7
100
AcDbLine
 10
-79.07212262530788
 20
24.2943750000003
 30
0.0
 11
-79.07212262530778
 21
24.8071250000004
 31
0.0
  0
LINE
  5
3D8
330
1F
100
AcDbEntity
  8
1
  6
DASH_CENTER
 62
     7
100
AcDbLine
 10
-79.82987262530789
 20
19.7500000000002
 30
0.0
 11
-79.82987262530789
 21
20.8437500000002
 31
0.0
  0
LINE
  5
3D9
330
1F
100
AcDbEntity
  8
1
  6
Continuous
 62
     7
100
AcDbLine
 10
-80.4525266253079
 20
20.7343750000002
 30
0.0
 11
-79.2072186253078
 21
20.7343750000002
 31
0.0
  0
LINE
  5
3DA
330
1F
100
AcDbEntity
  8
1
  6
Continuous
 62
     7
100
AcDbLine
 10
-80.4525266253079
 20
19.8593750000002
 30
0.0
 11
-79.2072186253078
 21
19.8593750000002
 31
0.0
  0
LINE
  5
3DB
330
1F
100
AcDbEntity
  8
1
  6
Continuous
 62
     7
100
AcDbLine
 10
-79.0001466253077
 20
20.660875000001
 30
0.0
 11
-79.0001466253077
 21
19.9328749999994
 31
0.0
  0
LINE
  5
3DC
330
1F
100
AcDbEntity
  8
1
  6
Continuous
 62
     7
100
AcDbLine
 10
-79.41472202530768
 20
19.9328750000002
 30
0.0
 11
-79.41472202530768
 21
20.6608750000002
 31
0.0
  0
LINE
  5
3DD
330
1F
100
AcDbEntity
  8
1
  6
Continuous
 62
     7
100
AcDbLine
 10
-80.2450232253077
 20
20.660875
 30
0.0
 11
-80.2450232253077
 21
19.9328749999994
 31
0.0
  0
LINE
  5
3DE
330
1F
100
AcDbEntity
  8
1
  6
Continuous
 62
     7
100
AcDbLine
 10
-80.65959862530809
 20
20.660875
 30
0.0
 11
-80.6595986253082
 21
19.9328749999994
 31
0.0
  0
LINE
  5
3DF
330
1F
100
AcDbEntity
  8
1
  6
Continuous
 62
     7
100
AcDbLine
 10
-75.934598625308
 20
20.660875
 30
0.0
 11
-75.934598625308
 21
19.9328749999994
 31
0.0
  0
LINE
  5
3E0
330
1F
100
AcDbEntity
  8
1
  6
Continuous
 62
     7
100
AcDbLine
 10
-75.5200232253079
 20
20.6608750000002
 30
0.0
 11
-75.5200232253079
 21
19.9328750000002
 31
0.0
  0
LINE
  5
3E1
330
1F
100
AcDbEntity
  8
1
  6
Continuous
 62
     7
100
AcDbLine
 10
-74.689722025308
 20
19.9328749999994
 30
0.0
 11
-74.689722025308
 21
20.660875000001
 31
0.0
  0
LINE
  5
3E2
330
1F
100
AcDbEntity
  8
1
  6
Continuous
 62
     7
100
AcDbLine
 10
-74.2751466253076
 20
20.660875000001
 30
0.0
 11
-74.2751466253076
 21
19.9328749999994
 31
0.0
  0
LINE
  5
3E3
330
1F
100
AcDbEntity
  8
1
  6
Continuous
 62
     7
100
AcDbLine
 10
-75.7275266253078
 20
19.8593750000002
 30
0.0
 11
-74.48221862530778
 21
19.8593750000002
 31
0.0
  0
LINE
  5
3E4
330
1F
100
AcDbEntity
  8
1
  6
Continuous
 62
     7
100
AcDbLine
 10
-75.7275266253078
 20
20.7343750000002
 30
0.0
 11
-74.48221862530778
 21
20.7343750000002
 31
0.0
  0
LINE
  5
3E5
330
1F
100
AcDbEntity
  8
1
  6
DASH_CENTER
 62
     7
100
AcDbLine
 10
-75.10487262530779
 20
19.7500000000002
 30
0.0
 11
-75.10487262530779
 21
20.8437500000002
 31
0.0
  0
LINE
  5
3E6
330
1F
100
AcDbEntity
  8
1
  6
Continuous
 62
     7
100
AcDbLine
 10
-74.34712262530779
 20
24.2943750000003
 30
0.0
 11
-74.3471226253077
 21
24.8071250000004
 31
0.0
  0
LINE
  5
3E7
330
1F
100
AcDbEntity
  8
1
  6
Continuous
 62
     7
100
AcDbLine
 10
-75.8626226253079
 20
24.8071250000004
 30
0.0
 11
-75.8626226253078
 21
24.2943750000003
 31
0.0
  0
LINE
  5
3E8
330
1F
100
AcDbEntity
  8
1
  6
Continuous
 62
     7
100
AcDbLine
 10
-75.8626226253078
 20
24.2943750000003
 30
0.0
 11
-75.4837476253078
 21
24.2943750000003
 31
0.0
  0
LINE
  5
3E9
330
1F
100
AcDbEntity
  8
1
  6
Continuous
 62
     7
100
AcDbLine
 10
-74.7259976253079
 20
24.8071250000003
 30
0.0
 11
-74.7259976253078
 21
24.2943750000003
 31
0.0
  0
LINE
  5
3EA
330
1F
100
AcDbEntity
  8
1
  6
Continuous
 62
     7
100
AcDbLine
 10
-75.4837476253077
 20
24.8071250000004
 30
0.0
 11
-75.4837476253078
 21
24.2943750000003
 31
0.0
  0
LINE
  5
3EB
330
1F
100
AcDbEntity
  8
1
  6
Continuous
 62
     7
100
AcDbLine
 10
-75.4837476253078
 20
24.2943750000003
 30
0.0
 11
-74.7259976253078
 21
24.2943750000003
 31
0.0
  0
LINE
  5
3EC
330
1F
100
AcDbEntity
  8
1
  6
Continuous
 62
     7
100
AcDbLine
 10
-74.7259976253078
 20
24.2943750000003
 30
0.0
 11
-74.34712262530779
 21
24.2943750000003
 31
0.0
  0
LINE
  5
3ED
330
1F
100
AcDbEntity
  8
1
  6
Continuous
 62
     7
100
AcDbLine
 10
-74.66737262530779
 20
19.3490750000002
 30
0.0
 11
-75.5423726253078
 21
19.3490750000002
 31
0.0
  0
LINE
  5
3EE
330
1F
100
AcDbEntity
  8
1
  6
Continuous
 62
     7
100
AcDbLine
 10
-75.5423726253078
 20
19.3490750000002
 30
0.0
 11
-75.5423726253078
 21
19.8593750000002
 31
0.0
  0
LINE
  5
3EF
330
1F
100
AcDbEntity
  8
1
  6
Continuous
 62
     7
100
AcDbLine
 10
-74.66737262530779
 20
19.3490750000002
 30
0.0
 11
-74.7220726253078
 21
19.2943750000002
 31
0.0
  0
LINE
  5
3F0
330
1F
100
AcDbEntity
  8
1
  6
Continuous
 62
     7
100
AcDbLine
 10
-74.7220726253078
 20
19.2943750000002
 30
0.0
 11
-75.4876726253078
 21
19.2943750000002
 31
0.0
  0
LINE
  5
3F1
330
1F
100
AcDbEntity
  8
1
  6
Continuous
 62
     7
100
AcDbLine
 10
-75.4876726253078
 20
19.2943750000002
 30
0.0
 11
-75.5423726253078
 21
19.3490750000002
 31
0.0
  0
LINE
  5
3F2
330
1F
100
AcDbEntity
  8
1
  6
Continuous
 62
     7
100
AcDbLine
 10
-74.53612262530778
 20
24.8806250000003
 30
0.0
 11
-75.6736226253078
 21
24.8806250000003
 31
0.0
  0
LINE
  5
3F3
330
1F
100
AcDbEntity
  8
1
  6
Continuous
 62
     7
100
AcDbLine
 10
-75.5423726253078
 20
19.8593750000002
 30
0.0
 11
-74.66737262530779
 21
19.8593750000002
 31
0.0
  0
LINE
  5
3F4
330
1F
100
AcDbEntity
  8
1
  6
Continuous
 62
     7
100
AcDbLine
 10
-74.66737262530779
 20
19.8593750000002
 30
0.0
 11
-74.66737262530779
 21
19.3490750000002
 31
0.0
  0
LINE
  5
3F5
330
1F
100
AcDbEntity
  8
1
  6
Continuous
 62
     7
100
AcDbLine
 10
-74.66737262530779
 20
19.4685417843702
 30
0.0
 11
-75.5423726253078
 21
19.4685417843702
 31
0.0
  0
LINE
  5
3F6
330
1F
100
AcDbEntity
  8
1
  6
Continuous
 62
     7
100
AcDbLine
 10
-74.66737262530779
 20
19.5880085687392
 30
0.0
 11
-75.5423726253078
 21
19.5880085687392
 31
0.0
  0
LINE
  5
3F7
330
1F
100
AcDbEntity
  8
1
  6
Continuous
 62
     7
100
AcDbLine
 10
-74.66737262530779
 20
19.7074753531092
 30
0.0
 11
-75.5423726253078
 21
19.7074753531092
 31
0.0
  0
LINE
  5
3F8
330
1F
100
AcDbEntity
  8
1
  6
Continuous
 62
     7
100
AcDbLine
 10
-59.50556709286259
 20
-3.26562500000004
 30
0.0
 11
-56.54276010710959
 21
-3.26562500000004
 31
0.0
  0
LINE
  5
3F9
330
1F
100
AcDbEntity
  8
1
  6
DASH_CENTER
 62
     7
100
AcDbLine
 10
-115.309798096815
 20
35.76778247901739
 30
0.0
 11
-115.309798096815
 21
40.1274370612844
 31
0.0
  0
LINE
  5
3FA
330
1F
100
AcDbEntity
  8
1
  6
DASH_CENTER
 62
     7
100
AcDbLine
 10
-115.309798096815
 20
35.76778247901739
 30
0.0
 11
-115.309798096815
 21
35.4242432240094
 31
0.0
  0
LINE
  5
3FB
330
1F
100
AcDbEntity
  8
1
  6
DASH_CENTER
 62
     2
100
AcDbLine
 10
-115.309798096815
 20
42.25141395061749
 30
0.0
 11
-115.309798096815
 21
40.7653281572664
 31
0.0
  0
LINE
  5
3FC
330
1F
100
AcDbEntity
  8
1
  6
DASH_CENTER
 62
     2
100
AcDbLine
 10
-115.309798096815
 20
41.78415100741749
 30
0.0
 11
-115.309798096815
 21
43.2702368007675
 31
0.0
  0
LINE
  5
3FD
330
1F
100
AcDbEntity
  8
1
  6
DASH_CENTER
 62
     7
100
AcDbLine
 10
-72.7568726253078
 20
47.89278247901749
 30
0.0
 11
-72.7568726253078
 21
11.7343750000001
 31
0.0
  0
LINE
  5
3FE
330
1F
100
AcDbEntity
  8
1
  6
Continuous
 62
     7
100
AcDbLine
 10
-106.592880310841
 20
22.7898098953363
 30
0.0
 11
-106.591798096815
 21
22.7278098953363
 31
0.0
  0
LINE
  5
3FF
330
1F
100
AcDbEntity
  8
1
  6
DASH_CENTER
 62
     2
100
AcDbLine
 10
-72.7568726253078
 20
42.7047824790175
 30
0.0
 11
-72.7568726253078
 21
22.7943750000002
 31
0.0
  0
LINE
  5
400
330
1F
100
AcDbEntity
  8
1
  6
DASH_CENTER
 62
     2
100
AcDbLine
 10
-115.309798096815
 20
42.7047824790175
 30
0.0
 11
-115.309798096815
 21
22.7943750000002
 31
0.0
  0
LINE
  5
401
330
1F
100
AcDbEntity
  8
1
  6
Continuous
 62
     7
100
AcDbLine
 10
-119.105781302799
 20
41.3927824790174
 30
0.0
 11
-115.309798096815
 21
41.3927824790174
 31
0.0
  0
LINE
  5
402
330
1F
100
AcDbEntity
  8
1
  6
Continuous
 62
     7
100
AcDbLine
 10
-120.997298096815
 20
42.7047824790175
 30
0.0
 11
-115.309798096815
 21
42.7047824790175
 31
0.0
  0
LINE
  5
403
330
1F
100
AcDbEntity
  8
1
  6
Continuous
 62
     7
100
AcDbLine
 10
-122.309798096815
 20
24.2943750000003
 30
0.0
 11
-115.309798096815
 21
24.2943750000003
 31
0.0
  0
LINE
  5
404
330
1F
100
AcDbEntity
  8
1
  6
Continuous
 62
     7
100
AcDbLine
 10
-92.25687262530799
 20
22.7943750000002
 30
0.0
 11
-72.7568726253078
 21
22.7943750000002
 31
0.0
  0
LINE
  5
405
330
1F
100
AcDbEntity
  8
1
  6
Continuous
 62
     7
100
AcDbLine
 10
-90.08187262530798
 20
24.2943750000003
 30
0.0
 11
-72.7568726253078
 21
24.2943750000003
 31
0.0
  0
LINE
  5
406
330
1F
100
AcDbEntity
  8
1
  6
Continuous
 62
     7
100
AcDbLine
 10
-53.2568726253076
 20
24.2943750000003
 30
0.0
 11
-53.2568726253076
 21
22.7943750000002
 31
0.0
  0
LINE
  5
407
330
1F
100
AcDbEntity
  8
1
  6
Continuous
 62
     7
100
AcDbLine
 10
-106.434798096815
 20
22.7943750000002
 30
0.0
 11
-106.434798096815
 21
24.2943750000003
 31
0.0
  0
LINE
  5
408
330
1F
100
AcDbEntity
  8
1
  6
Continuous
 62
     7
100
AcDbLine
 10
-119.105781302799
 20
41.3927824790174
 30
0.0
 11
-120.497298096815
 21
41.3927824790174
 31
0.0
  0
LINE
  5
409
330
1F
100
AcDbEntity
  8
1
  6
Continuous
 62
     7
100
AcDbLine
 10
-119.726120128579
 20
39.3635117880703
 30
0.0
 11
-121.267254229682
 21
37.1625441934575
 31
0.0
  0
LINE
  5
40A
330
1F
100
AcDbEntity
  8
1
  6
Continuous
 62
     7
100
AcDbLine
 10
-120.997298096815
 20
41.3927824790174
 30
0.0
 11
-120.497298096815
 21
41.3927824790174
 31
0.0
  0
LINE
  5
40B
330
1F
100
AcDbEntity
  8
1
  6
Continuous
 62
     7
100
AcDbLine
 10
-120.997298096815
 20
42.7047824790175
 30
0.0
 11
-120.997298096815
 21
41.3927824790174
 31
0.0
  0
LINE
  5
40C
330
1F
100
AcDbEntity
  8
1
  6
Continuous
 62
     7
100
AcDbLine
 10
-124.184798096815
 20
22.7943750000002
 30
0.0
 11
-115.309798096815
 21
22.7943750000002
 31
0.0
  0
LINE
  5
40D
330
1F
100
AcDbEntity
  8
1
  6
Continuous
 62
     7
100
AcDbLine
 10
-124.184798096815
 20
24.2943750000003
 30
0.0
 11
-124.184798096815
 21
22.7943750000002
 31
0.0
  0
LINE
  5
40E
330
1F
100
AcDbEntity
  8
1
  6
Continuous
 62
     7
100
AcDbLine
 10
-122.309798096815
 20
24.2943750000003
 30
0.0
 11
-124.184798096815
 21
24.2943750000003
 31
0.0
  0
LINE
  5
40F
330
1F
100
AcDbEntity
  8
1
  6
Continuous
 62
     7
100
AcDbLine
 10
-121.809798096815
 20
35.4418148844044
 30
0.0
 11
-121.809798096815
 21
24.8806250000003
 31
0.0
  0
LINE
  5
410
330
1F
100
AcDbEntity
  8
1
  6
Continuous
 62
     7
100
AcDbLine
 10
-119.726120128579
 20
39.3635117880703
 30
0.0
 11
-119.726120128579
 21
39.3635117880703
 31
0.0
  0
LINE
  5
411
330
1F
100
AcDbEntity
  8
1
  6
Continuous
 62
     7
100
AcDbLine
 10
-76.4329202557348
 20
41.3927824790174
 30
0.0
 11
-78.44437262530779
 21
41.3927824790174
 31
0.0
  0
LINE
  5
412
330
1F
100
AcDbEntity
  8
1
  6
Continuous
 62
     7
100
AcDbLine
 10
-78.44437262530779
 20
42.7047824790175
 30
0.0
 11
-78.44437262530779
 21
41.3927824790174
 31
0.0
  0
LINE
  5
413
330
1F
100
AcDbEntity
  8
1
  6
Continuous
 62
     7
100
AcDbLine
 10
-92.25687262530799
 20
24.2943750000003
 30
0.0
 11
-90.08187262530798
 21
24.2943750000003
 31
0.0
  0
LINE
  5
414
330
1F
100
AcDbEntity
  8
1
  6
Continuous
 62
     7
100
AcDbLine
 10
-92.25687262530799
 20
22.7943750000002
 30
0.0
 11
-92.25687262530799
 21
24.2943750000003
 31
0.0
  0
LINE
  5
415
330
1F
100
AcDbEntity
  8
1
  6
Continuous
 62
     7
100
AcDbLine
 10
-88.2855385662308
 20
32.2137372842031
 30
0.0
 11
-76.83754809098059
 21
40.1120986519162
 31
0.0
  0
LINE
  5
416
330
1F
100
AcDbEntity
  8
1
  6
Continuous
 62
     7
100
AcDbLine
 10
-76.3444695647554
 20
41.38489676987399
 30
0.0
 11
-72.7568726253078
 21
41.3848967698735
 31
0.0
  0
LINE
  5
417
330
1F
100
AcDbEntity
  8
1
  6
Continuous
 62
     7
100
AcDbLine
 10
-89.581872625308
 20
24.8790520038863
 30
0.0
 11
-89.581872625308
 21
29.7444211113043
 31
0.0
  0
LINE
  5
418
330
1F
100
AcDbEntity
  8
1
  6
DASH_CENTER
 62
     2
100
AcDbLine
 10
-115.309798096814
 20
38.1682860914384
 30
0.0
 11
-115.309798096815
 21
18.6454382857602
 31
0.0
  0
LINE
  5
419
330
1F
100
AcDbEntity
  8
1
  6
DASH_CENTER
 62
     7
100
AcDbLine
 10
-72.7568726253078
 20
-3.26562500000004
 30
0.0
 11
-56.54036014400259
 21
-3.26562500000004
 31
0.0
  0
LINE
  5
41A
330
1F
100
AcDbEntity
  8
1
  6
Continuous
 62
     7
100
AcDbLine
 10
-75.4541883381781
 20
-10.8890327540234
 30
0.0
 11
-75.4739593048491
 21
-12.0217106760184
 31
0.0
  0
LINE
  5
41B
330
1F
100
AcDbEntity
  8
1
  6
Continuous
 62
     7
100
AcDbLine
 10
-76.0790931476508
 20
-10.2531250000001
 30
0.0
 11
-78.5827212973899
 21
-10.2531250000001
 31
0.0
  0
LINE
  5
41C
330
1F
100
AcDbEntity
  8
1
  6
Continuous
 62
     7
100
AcDbLine
 10
-76.0315280957218
 20
-8.77812500000009
 30
0.0
 11
-74.4123081631821
 21
-8.77812500000067
 31
0.0
  0
LINE
  5
41D
330
1F
100
AcDbEntity
  8
1
  6
Continuous
 62
     7
100
AcDbLine
 10
-75.2272724941111
 20
2.11096724597672
 30
0.0
 11
-75.4066232862491
 21
-8.16403275402343
 31
0.0
  0
LINE
  5
41E
330
1F
100
AcDbEntity
  8
1
  6
Continuous
 62
     7
100
AcDbLine
 10
-75.8521773035838
 20
2.74687500000003
 30
0.0
 11
-73.6616507935401
 21
2.74687500000061
 31
0.0
  0
LINE
  5
41F
330
1F
100
AcDbEntity
  8
1
  6
Continuous
 62
     7
100
AcDbLine
 10
-75.8046122516548
 20
4.22187500000005
 30
0.0
 11
-81.2032013396079
 21
4.22187500000005
 31
0.0
  0
LINE
  5
420
330
1F
100
AcDbEntity
  8
1
  6
Continuous
 62
     7
100
AcDbLine
 10
-75.1275079681741
 20
7.82647310906279
 30
0.0
 11
-75.1797074421821
 21
4.83596724597675
 31
0.0
  0
LINE
  5
421
330
1F
100
AcDbEntity
  8
1
  6
DASH_CENTER
 62
     7
100
AcDbLine
 10
-72.7568726253078
 20
-3.26562500000004
 30
0.0
 11
-72.7568726253078
 21
11.7343750000001
 31
0.0
  0
LINE
  5
422
330
1F
100
AcDbEntity
  8
1
  6
DASH_CENTER
 62
     7
100
AcDbLine
 10
-72.7568726253078
 20
8.7730867216481
 30
0.0
 11
-72.7568726253078
 21
11.7343750000001
 31
0.0
  0
LINE
  5
423
330
1F
100
AcDbEntity
  8
1
  6
Continuous
 62
     7
100
AcDbLine
 10
-74.4123081631821
 20
-10.2531249999995
 30
0.0
 11
-76.0790931476508
 21
-10.2531250000001
 31
0.0
  0
LINE
  5
424
330
1F
100
AcDbEntity
  8
1
  6
Continuous
 62
     7
100
AcDbLine
 10
-81.5145700821352
 20
-8.63167839059333
 30
0.0
 11
-82.9691832265373
 21
-7.17706524619045
 31
0.0
  0
LINE
  5
425
330
1F
100
AcDbEntity
  8
1
  6
Continuous
 62
     7
100
AcDbLine
 10
-81.1610166915419
 20
-8.77812500000009
 30
0.0
 11
-76.0315280957218
 21
-8.77812500000009
 31
0.0
  0
LINE
  5
426
330
1F
100
AcDbEntity
  8
1
  6
Continuous
 62
     7
100
AcDbLine
 10
-82.96390103631089
 20
2.74687500000003
 30
0.0
 11
-75.8521773035838
 21
2.74687500000003
 31
0.0
  0
LINE
  5
427
330
1F
100
AcDbEntity
  8
1
  6
Continuous
 62
     7
100
AcDbLine
 10
-73.6616507935401
 20
4.22187499999947
 30
0.0
 11
-75.8046122516548
 21
4.22187500000005
 31
0.0
  0
LINE
  5
428
330
1F
100
AcDbEntity
  8
1
  6
Continuous
 62
     7
100
AcDbLine
 10
-81.1537656518981
 20
-11.6625180265904
 30
0.0
 11
-82.8858164594669
 21
-9.93046721902111
 31
0.0
  0
LINE
  5
429
330
1F
100
AcDbEntity
  8
1
  6
Continuous
 62
     7
100
AcDbLine
 10
-84.50687262530789
 20
-3.46475464496104
 30
0.0
 11
-84.50687262530789
 21
-2.14062500000002
 31
0.0
  0
LINE
  5
42A
330
1F
100
AcDbEntity
  8
1
  6
DASH_CENTER
 62
     7
100
AcDbLine
 10
-72.7568726253078
 20
10.5343750000001
 30
0.0
 11
-72.7568726253078
 21
10.1908357449921
 31
0.0
  0
LINE
  5
42B
330
1F
100
AcDbEntity
  8
1
  6
DASH_CENTER
 62
     7
100
AcDbLine
 10
-72.7568726253078
 20
10.5343750000001
 30
0.0
 11
-72.7568726253078
 21
11.7343750000001
 31
0.0
  0
LINE
  5
42C
330
1F
100
AcDbEntity
  8
1
  6
DASH_CENTER
 62
     7
100
AcDbLine
 10
-72.7568726253078
 20
41.78415100741749
 30
0.0
 11
-72.7568726253078
 21
43.2702368007675
 31
0.0
  0
LINE
  5
42D
330
1F
100
AcDbEntity
  8
1
  6
DASH_CENTER
 62
     7
100
AcDbLine
 10
-72.7568726253078
 20
42.25141395061749
 30
0.0
 11
-72.7568726253078
 21
40.7653281572664
 31
0.0
  0
LINE
  5
42E
330
1F
100
AcDbEntity
  8
1
  6
Continuous
 62
     7
100
AcDbLine
 10
-115.309798096815
 20
42.7047824790175
 30
0.0
 11
-120.997298096815
 21
42.7047824790175
 31
0.0
  0
LINE
  5
42F
330
1F
100
AcDbEntity
  8
1
  6
DASH_CENTER
 62
     2
100
AcDbLine
 10
-115.309798096815
 20
51.5829794472906
 30
0.0
 11
-115.309798096815
 21
43.7711987334635
 31
0.0
  0
LINE
  5
430
330
1F
100
AcDbEntity
  8
1
  6
DASH_CENTER
 62
     2
100
AcDbLine
 10
-72.7568726253078
 20
51.07437033118559
 30
0.0
 11
-72.7568726253078
 21
44.38978247901749
 31
0.0
  0
LINE
  5
431
330
1F
100
AcDbEntity
  8
1
  6
Continuous
 62
     7
100
AcDbLine
 10
-75.86178039997878
 20
12.3027780237781
 30
0.0
 11
-84.52483431624988
 21
12.3027780237781
 31
0.0
  0
LINE
  5
432
330
1F
100
AcDbEntity
  8
1
  6
Continuous
 62
     7
100
AcDbLine
 10
-84.52483431624988
 20
8.8767212317781
 30
0.0
 11
-82.98326265246888
 21
8.8767212317781
 31
0.0
  0
LINE
  5
433
330
1F
100
AcDbEntity
  8
1
  6
Continuous
 62
     7
100
AcDbLine
 10
-81.75687262530789
 20
-16.6031894328342
 30
0.0
 11
-81.75687262530789
 21
-18.6406250000002
 31
0.0
  0
LINE
  5
434
330
1F
100
AcDbEntity
  8
1
  6
Continuous
 62
     7
100
AcDbLine
 10
-81.2568726253079
 20
-19.1406250000002
 30
0.0
 11
-64.2568726253077
 21
-19.1406250000002
 31
0.0
  0
LINE
  5
435
330
1F
100
AcDbEntity
  8
1
  6
Continuous
 62
     7
100
AcDbLine
 10
-102.497298096815
 20
12.6093750000001
 30
0.0
 11
-102.497298096815
 21
10.1868750000001
 31
0.0
  0
LINE
  5
436
330
1F
100
AcDbEntity
  8
1
  6
Continuous
 62
     7
100
AcDbLine
 10
-102.497298096815
 20
-19.1406250000002
 30
0.0
 11
-103.579798096815
 21
-19.1406250000002
 31
0.0
  0
LINE
  5
437
330
1F
100
AcDbEntity
  8
1
  6
Continuous
 62
     7
100
AcDbLine
 10
-102.497298096815
 20
-16.7181250000002
 30
0.0
 11
-102.497298096815
 21
-19.1406250000002
 31
0.0
  0
LINE
  5
438
330
1F
100
AcDbEntity
  8
1
  6
Continuous
 62
     7
100
AcDbLine
 10
-104.141798096815
 20
-17.3356250000002
 30
0.0
 11
-105.937025778738
 21
-17.3356250000002
 31
0.0
  0
LINE
  5
439
330
1F
100
AcDbEntity
  8
1
  6
Continuous
 62
     7
100
AcDbLine
 10
-103.579798096815
 20
-19.1406250000002
 30
0.0
 11
-103.579798096815
 21
-17.8976250000002
 31
0.0
  0
LINE
  5
43A
330
1F
100
AcDbEntity
  8
1
  6
Continuous
 62
     7
100
AcDbLine
 10
-102.497298096815
 20
10.1868750000001
 30
0.0
 11
-102.497298096815
 21
-3.26562500000004
 31
0.0
  0
LINE
  5
43B
330
1F
100
AcDbEntity
  8
1
  6
Continuous
 62
     7
100
AcDbLine
 10
-63.7568726253077
 20
-18.6406250000002
 30
0.0
 11
-63.7568726253077
 21
-16.6031894328342
 31
0.0
  0
LINE
  5
43C
330
1F
100
AcDbEntity
  8
1
  6
Continuous
 62
     7
100
AcDbLine
 10
-122.917981227571
 20
9.85937500000011
 30
0.0
 11
-122.311170442813
 21
9.85937500000011
 31
0.0
  0
LINE
  5
43D
330
1F
100
AcDbEntity
  8
1
  6
Continuous
 62
     7
100
AcDbLine
 10
-121.811170442813
 20
10.3593750000001
 30
0.0
 11
-121.811170442813
 21
15.1817369969912
 31
0.0
  0
LINE
  5
43E
330
1F
100
AcDbEntity
  8
1
  6
Continuous
 62
     7
100
AcDbLine
 10
-107.701614966056
 20
-16.3906250000002
 30
0.0
 11
-115.309798096815
 21
-16.3906250000002
 31
0.0
  0
LINE
  5
43F
330
1F
100
AcDbEntity
  8
1
  6
Continuous
 62
     7
100
AcDbLine
 10
-102.497298096815
 20
-3.26562500000004
 30
0.0
 11
-102.497298096815
 21
-16.7181250000002
 31
0.0
  0
LINE
  5
440
330
1F
100
AcDbEntity
  8
0
  6
Continuous
 62
     7
100
AcDbLine
 10
-91.013582860587
 20
-3.26562500000004
 30
0.0
 11
-54.61231615709559
 21
-3.26562500000004
 31
0.0
  0
LINE
  5
441
330
1F
100
AcDbEntity
  8
1
  6
Continuous
 62
     7
100
AcDbLine
 10
-75.2518726253078
 20
42.7047824790175
 30
0.0
 11
-79.44437262530789
 21
42.7047824790175
 31
0.0
  0
LINE
  5
442
330
1F
100
AcDbEntity
  8
1
  6
Continuous
 62
     7
100
AcDbLine
 10
-117.454798096815
 20
42.7047824790175
 30
0.0
 11
-115.309798096815
 21
42.7047824790175
 31
0.0
  0
LINE
  5
443
330
1F
100
AcDbEntity
  8
1
  6
DASH_CENTER
 62
     2
100
AcDbLine
 10
-115.309798096815
 20
45.0192491610525
 30
0.0
 11
-115.309798096815
 21
42.5071262694735
 31
0.0
  0
LINE
  5
444
330
1F
100
AcDbEntity
  8
1
  6
Continuous
 62
     7
100
AcDbLine
 10
-117.804798096815
 20
42.7047824790175
 30
0.0
 11
-121.059798096815
 21
42.7047824790175
 31
0.0
  0
LINE
  5
445
330
1F
100
AcDbEntity
  8
1
  6
Continuous
 62
     7
100
AcDbLine
 10
-120.622298096815
 20
44.5797824790175
 30
0.0
 11
-115.309798096815
 21
44.5797824790175
 31
0.0
  0
LINE
  5
446
330
1F
100
AcDbEntity
  8
1
  6
Continuous
 62
     7
100
AcDbLine
 10
-121.059798096815
 20
42.7047824790175
 30
0.0
 11
-120.997298096815
 21
44.2047824790175
 31
0.0
  0
LINE
  5
447
330
1F
100
AcDbEntity
  8
1
  6
Continuous
 62
     7
100
AcDbLine
 10
-74.9018726253078
 20
42.7047824790175
 30
0.0
 11
-73.7918726253078
 21
42.7047824790175
 31
0.0
  0
LINE
  5
448
330
1F
100
AcDbEntity
  8
1
  6
Continuous
 62
     7
100
AcDbLine
 10
-70.1608726253078
 20
44.5797824790175
 30
0.0
 11
-72.7568726253078
 21
44.5797824790175
 31
0.0
  0
LINE
  5
449
330
1F
100
AcDbEntity
  8
1
  6
DASH_CENTER
 62
     2
100
AcDbLine
 10
-72.7568726253078
 20
44.93376716754749
 30
0.0
 11
-72.7568726253078
 21
42.42164427596949
 31
0.0
  0
LINE
  5
44A
330
1F
100
AcDbEntity
  8
1
  6
Continuous
 62
     3
100
AcDbLine
 10
-73.7618726253078
 20
42.73478247901739
 30
0.0
 11
-73.7918726253078
 21
42.7047824790175
 31
0.0
  0
LINE
  5
44B
330
1F
100
AcDbEntity
  8
1
  6
Continuous
 62
     7
100
AcDbLine
 10
-72.7568726253078
 20
44.5797824790175
 30
0.0
 11
-73.7568726253078
 21
44.5797824790175
 31
0.0
  0
LINE
  5
44C
330
1F
100
AcDbEntity
  8
1
  6
Continuous
 62
     7
100
AcDbLine
 10
-72.7568726253078
 20
42.7047824790175
 30
0.0
 11
-73.7918726253078
 21
42.7047824790175
 31
0.0
  0
LINE
  5
44D
330
1F
100
AcDbEntity
  8
1
  6
Continuous
 62
     7
100
AcDbLine
 10
-80.6943726253079
 20
41.7047824790175
 30
0.0
 11
-80.6691174966999
 21
41.7047824790175
 31
0.0
  0
LINE
  5
44E
330
1F
100
AcDbEntity
  8
1
  6
Continuous
 62
     7
100
AcDbLine
 10
-80.9443726253079
 20
43.0797824790175
 30
0.0
 11
-80.9443726253079
 21
41.9547824790175
 31
0.0
  0
LINE
  5
44F
330
1F
100
AcDbEntity
  8
1
  6
Continuous
 62
     7
100
AcDbLine
 10
-117.804798096815
 20
42.7047824790175
 30
0.0
 11
-117.454798096815
 21
42.7047824790175
 31
0.0
  0
LINE
  5
450
330
1F
100
AcDbEntity
  8
1
  6
Continuous
 62
     7
100
AcDbLine
 10
-75.2518726253078
 20
42.7047824790175
 30
0.0
 11
-74.9018726253078
 21
42.7047824790175
 31
0.0
  0
LINE
  5
451
330
1F
100
AcDbEntity
  8
0
  6
Continuous
 62
     7
100
AcDbLine
 10
-75.8050426253078
 20
44.5797824790175
 30
0.0
 11
-73.7568726253078
 21
44.5797824790175
 31
0.0
  0
LINE
  5
452
330
1F
100
AcDbEntity
  8
1
  6
Continuous
 62
     7
100
AcDbLine
 10
-73.7568726253078
 20
44.5797824790175
 30
0.0
 11
-79.44437262530789
 21
44.5797824790175
 31
0.0
  0
LINE
  5
453
330
1F
100
AcDbEntity
  8
1
  6
DASH_CENTER
 62
     7
100
AcDbLine
 10
-72.7568726253078
 20
11.7343750000001
 30
0.0
 11
-72.7568726253078
 21
23.8307434925643
 31
0.0
  0
LINE
  5
454
330
1F
100
AcDbEntity
  8
1
  6
DASH_CENTER
 62
     7
100
AcDbLine
 10
-72.7568726253078
 20
11.7343750000001
 30
0.0
 11
-72.7568726253078
 21
9.64278247901711
 31
0.0
  0
LINE
  5
455
330
1F
100
AcDbEntity
  8
1
  6
DASH_CENTER
 62
     7
100
AcDbLine
 10
-72.7568726253078
 20
11.7343750000001
 30
0.0
 11
-72.7568726253078
 21
9.64278247901711
 31
0.0
  0
LINE
  5
456
330
1F
100
AcDbEntity
  8
1
  6
DASH_CENTER
 62
     7
100
AcDbLine
 10
-72.7568726253078
 20
11.7343750000001
 30
0.0
 11
-72.7568726253078
 21
13.9867659475922
 31
0.0
  0
LINE
  5
457
330
1F
100
AcDbEntity
  8
1
  6
DASH_CENTER
 62
     7
100
AcDbLine
 10
-72.7568726253078
 20
11.7343750000001
 30
0.0
 11
-72.7568726253078
 21
21.9677824790172
 31
0.0
  0
LINE
  5
458
330
1F
100
AcDbEntity
  8
1
  6
DASH_CENTER
 62
     7
100
AcDbLine
 10
-72.7568726253078
 20
11.7343750000001
 30
0.0
 11
-72.7568726253078
 21
14.8940295822672
 31
0.0
  0
LINE
  5
459
330
1F
100
AcDbEntity
  8
0
  6
DASH_CENTER
 62
     2
100
AcDbLine
 10
-112.306023401587
 20
-3.26562500000004
 30
0.0
 11
-102.227898401587
 21
-3.26562500000004
 31
0.0
  0
ARC
  5
463
330
1F
100
AcDbEntity
  8
1
  6
Continuous
 62
     7
100
AcDbCircle
 10
-114.778498096815
 20
50.8235015905933
 30
0.0
 40
0.0312999999998167
100
AcDbArc
 50
67.92188267955083
 51
180.0
  0
ARC
  5
464
330
1F
100
AcDbEntity
  8
1
  6
Continuous
 62
     7
100
AcDbCircle
 10
-114.403548096815
 20
50.4198825366873
 30
0.0
 40
0.0625
100
AcDbArc
 50
0.0
 51
90.0
  0
ARC
  5
465
330
1F
100
AcDbEntity
  8
1
  6
Continuous
 62
     7
100
AcDbCircle
 10
-114.372298096815
 20
50.4511325366874
 30
0.0
 40
0.0625
100
AcDbArc
 50
0.0
 51
90.0
  0
ARC
  5
466
330
1F
100
AcDbEntity
  8
1
  6
Continuous
 62
     7
100
AcDbCircle
 10
-116.216048096815
 20
50.4198825366873
 30
0.0
 40
0.0625000000001066
100
AcDbArc
 50
90.0
 51
179.9999999999023
  0
ARC
  5
467
330
1F
100
AcDbEntity
  8
1
  6
Continuous
 62
     7
100
AcDbCircle
 10
-116.247298096815
 20
50.4511325366874
 30
0.0
 40
0.0625
100
AcDbArc
 50
90.0
 51
180.0000000001043
  0
ARC
  5
468
330
1F
100
AcDbEntity
  8
1
  6
Continuous
 62
     7
100
AcDbCircle
 10
-116.216048096815
 20
48.60738253668729
 30
0.0
 40
0.0625
100
AcDbArc
 50
180.0
 51
270.0
  0
ARC
  5
469
330
1F
100
AcDbEntity
  8
1
  6
Continuous
 62
     7
100
AcDbCircle
 10
-116.247298096815
 20
48.5761325366874
 30
0.0
 40
0.0625
100
AcDbArc
 50
180.0
 51
270.0
  0
ARC
  5
46A
330
1F
100
AcDbEntity
  8
1
  6
Continuous
 62
     7
100
AcDbCircle
 10
-114.372298096815
 20
48.5761325366874
 30
0.0
 40
0.0625
100
AcDbArc
 50
270.0
 51
0.0
  0
ARC
  5
46B
330
1F
100
AcDbEntity
  8
1
  6
Continuous
 62
     7
100
AcDbCircle
 10
-114.403548096815
 20
48.60738253668729
 30
0.0
 40
0.0624999999999929
100
AcDbArc
 50
270.0
 51
0.0
  0
ARC
  5
46C
330
1F
100
AcDbEntity
  8
1
  6
Continuous
 62
     7
100
AcDbCircle
 10
-114.778498096815
 20
48.20376348278129
 30
0.0
 40
0.0313000000000017
100
AcDbArc
 50
180.0
 51
292.0781173205175
  0
ARC
  5
46D
330
1F
100
AcDbEntity
  8
1
  6
Continuous
 62
     7
100
AcDbCircle
 10
-114.841098096815
 20
48.2250133014519
 30
0.0
 40
0.0313000000000017
100
AcDbArc
 50
0.0
 51
90.0
  0
ARC
  5
46E
330
1F
100
AcDbEntity
  8
1
  6
Continuous
 62
     7
100
AcDbCircle
 10
-114.841098096815
 20
47.97511330145179
 30
0.0
 40
0.0312999999999022
100
AcDbArc
 50
270.0
 51
0.0
  0
ARC
  5
46F
330
1F
100
AcDbEntity
  8
1
  6
Continuous
 62
     7
100
AcDbCircle
 10
-114.778498096815
 20
48.00323420662959
 30
0.0
 40
0.0313000000001841
100
AcDbArc
 50
109.3799096540787
 51
180.0
  0
ARC
  5
470
330
1F
100
AcDbEntity
  8
1
  6
Continuous
 62
     7
100
AcDbCircle
 10
-81.0974623890873
 20
47.7008744138206
 30
0.0
 40
0.0313000000000017
100
AcDbArc
 50
180.0
 51
264.5321326165577
  0
ARC
  5
471
330
1F
100
AcDbEntity
  8
1
  6
Continuous
 62
     7
100
AcDbCircle
 10
-81.0974623890873
 20
50.92325747334809
 30
0.0
 40
0.0312999999999656
100
AcDbArc
 50
95.46786738344112
 51
180.0
  0
ARC
  5
472
330
1F
100
AcDbEntity
  8
1
  6
Continuous
 62
     7
100
AcDbCircle
 10
-83.0037623890873
 20
48.47076289734429
 30
0.0
 40
0.125
100
AcDbArc
 50
180.0
 51
269.0451587461519
  0
ARC
  5
473
330
1F
100
AcDbEntity
  8
1
  6
Continuous
 62
     7
100
AcDbCircle
 10
-83.0037623890873
 20
50.1533689898243
 30
0.0
 40
0.1250000000000381
100
AcDbArc
 50
90.9548412538481
 51
180.0
  0
ARC
  5
474
330
1F
100
AcDbEntity
  8
1
  6
Continuous
 62
     7
100
AcDbCircle
 10
-115.309798096815
 20
49.51363253668729
 30
0.0
 40
1.687499999999676
100
AcDbArc
 50
303.3313819351048
 51
3.06003860634263
  0
ARC
  5
475
330
1F
100
AcDbEntity
  8
1
  6
Continuous
 62
     7
100
AcDbCircle
 10
-115.309798096815
 20
49.51363253668729
 30
0.0
 40
1.687499999999894
100
AcDbArc
 50
3.06003860634263
 51
62.74008810112664
  0
ARC
  5
476
330
1F
100
AcDbEntity
  8
1
  6
Continuous
 62
     7
100
AcDbCircle
 10
-115.309798096815
 20
49.51363253668729
 30
0.0
 40
1.687500000000218
100
AcDbArc
 50
117.2599118989034
 51
176.9399613936592
  0
ARC
  5
477
330
1F
100
AcDbEntity
  8
1
  6
Continuous
 62
     7
100
AcDbCircle
 10
-115.309798096815
 20
49.51363253668729
 30
0.0
 40
1.66356923523528
100
AcDbArc
 50
64.38580660427886
 51
237.9435350147591
  0
ARC
  5
478
330
1F
100
AcDbEntity
  8
1
  6
Continuous
 62
     7
100
AcDbCircle
 10
-115.309798096815
 20
49.51363253668729
 30
0.0
 40
1.6875
100
AcDbArc
 50
270.0
 51
303.3313819351048
  0
ARC
  5
479
330
1F
100
AcDbEntity
  8
1
  6
Continuous
 62
     7
100
AcDbCircle
 10
-115.309798096815
 20
49.51363253668729
 30
0.0
 40
1.687500000000887
100
AcDbArc
 50
176.9399613936592
 51
270.0
  0
ARC
  5
47A
330
1F
100
AcDbEntity
  8
1
  6
Continuous
 62
     7
100
AcDbCircle
 10
-115.309798096815
 20
49.51363253668729
 30
0.0
 40
1.687499999999762
100
AcDbArc
 50
62.74008810112664
 51
117.2599118989034
  0
ARC
  5
47B
330
1F
100
AcDbEntity
  8
1
  6
Continuous
 62
     7
100
AcDbCircle
 10
-115.309798096815
 20
49.51363253668729
 30
0.0
 40
1.663569235235705
100
AcDbArc
 50
237.9435350147591
 51
323.0500503034861
  0
ARC
  5
47C
330
1F
100
AcDbEntity
  8
1
  6
Continuous
 62
     7
100
AcDbCircle
 10
-115.309798096815
 20
49.51363253668729
 30
0.0
 40
1.663569235235036
100
AcDbArc
 50
323.0500503034861
 51
64.38580660427886
  0
ARC
  5
47D
330
1F
100
AcDbEntity
  8
1
  6
Continuous
 62
     7
100
AcDbCircle
 10
-115.309798096815
 20
49.51363253668729
 30
0.0
 40
1.507319235235522
100
AcDbArc
 50
44.99999999999752
 51
70.62711401478447
  0
ARC
  5
47E
330
1F
100
AcDbEntity
  8
1
  6
Continuous
 62
     7
100
AcDbCircle
 10
-115.309798096815
 20
49.51363253668729
 30
0.0
 40
1.444819235234959
100
AcDbArc
 50
45.00000000002252
 51
67.92188267892435
  0
ARC
  5
47F
330
1F
100
AcDbEntity
  8
1
  6
Continuous
 62
     7
100
AcDbCircle
 10
-115.309798096815
 20
49.51363253668729
 30
0.0
 40
1.569819235235427
100
AcDbArc
 50
45.00000000000257
 51
70.62009034609812
  0
ARC
  5
480
330
1F
100
AcDbEntity
  8
1
  6
Continuous
 62
     7
100
AcDbCircle
 10
-115.309798096815
 20
49.51363253668729
 30
0.0
 40
1.569819235235306
100
AcDbArc
 50
289.3799096539032
 51
318.2811136414923
  0
ARC
  5
481
330
1F
100
AcDbEntity
  8
1
  6
Continuous
 62
     7
100
AcDbCircle
 10
-115.309798096815
 20
49.51363253668729
 30
0.0
 40
1.507319235235443
100
AcDbArc
 50
289.3728859852155
 51
318.2811136414906
  0
ARC
  5
482
330
1F
100
AcDbEntity
  8
1
  6
Continuous
 62
     7
100
AcDbCircle
 10
-115.309798096815
 20
49.51363253668729
 30
0.0
 40
1.44481923523517
100
AcDbArc
 50
292.0781173210773
 51
318.2811136414919
  0
ARC
  5
483
330
1F
100
AcDbEntity
  8
DRG
  6
Continuous
 62
     7
100
AcDbCircle
 10
-76.6938804993235
 20
48.5246643687812
 30
0.0
 40
2.755905511811006
100
AcDbArc
 50
57.4430679999994
 51
90.0
  0
ARC
  5
484
330
1F
100
AcDbEntity
  8
DRG
  6
Continuous
 62
     7
100
AcDbCircle
 10
-69.9025419166463
 20
49.7057667309859
 30
0.0
 40
0.3937007874014853
100
AcDbArc
 50
180.0
 51
270.0
  0
ARC
  5
485
330
1F
100
AcDbEntity
  8
DRG
  6
Continuous
 62
     7
100
AcDbCircle
 10
-68.8789198694022
 20
48.6821446837418
 30
0.0
 40
0.6299212598425896
100
AcDbArc
 50
0.0
 51
90.0
  0
ARC
  5
486
330
1F
100
AcDbEntity
  8
DRG
  6
Continuous
 62
     7
100
AcDbCircle
 10
-67.7765576646777
 20
48.3278139750804
 30
0.0
 40
0.4724409448819102
100
AcDbArc
 50
180.0
 51
264.9379069999898
  0
ARC
  5
487
330
1F
100
AcDbEntity
  8
DRG
  6
Continuous
 62
     7
100
AcDbCircle
 10
-67.835612782788
 20
47.6611331089386
 30
0.0
 40
0.1968503937008137
100
AcDbArc
 50
0.0
 51
84.93790700000037
  0
ARC
  5
488
330
1F
100
AcDbEntity
  8
DRG
  6
Continuous
 62
     7
100
AcDbCircle
 10
-75.4470452237329
 20
49.5482864160253
 30
0.0
 40
0.236220472441012
100
AcDbArc
 50
270.0
 51
0.0
  0
ARC
  5
489
330
1F
100
AcDbEntity
  8
DRG
  6
Continuous
 62
     7
100
AcDbCircle
 10
-78.4852190820006
 20
47.4223021640567
 30
0.0
 40
0.118110236220403
100
AcDbArc
 50
0.0
 51
90.0
  0
ARC
  5
48A
330
1F
100
AcDbEntity
  8
DRG
  6
Continuous
 62
     7
100
AcDbCircle
 10
-80.0403371922368
 20
50.39694243964739
 30
0.0
 40
0.3937007874015968
100
AcDbArc
 50
95.00000000002561
 51
180.0
  0
ARC
  5
48B
330
1F
100
AcDbEntity
  8
DRG
  6
Continuous
 62
     7
100
AcDbCircle
 10
-80.0403371922368
 20
48.22718940815129
 30
0.0
 40
0.3937007874016984
100
AcDbArc
 50
180.0
 51
264.9999999999886
  0
ARC
  5
48C
330
1F
100
AcDbEntity
  8
DRG
  6
Continuous
 62
     7
100
AcDbCircle
 10
-80.2765576646779
 20
47.6978927152378
 30
0.0
 40
0.1574803149606083
100
AcDbArc
 50
180.0
 51
270.0
  0
ARC
  5
48D
330
1F
100
AcDbEntity
  8
DRG
  6
Continuous
 62
     7
100
AcDbCircle
 10
-78.4852190820006
 20
47.6191525577575
 30
0.0
 40
0.118110236220403
100
AcDbArc
 50
0.0
 51
90.0
  0
ARC
  5
48E
330
1F
100
AcDbEntity
  8
DRG
  6
Continuous
 62
     7
100
AcDbCircle
 10
-78.4852190820006
 20
51.004979329411
 30
0.0
 40
0.118110236220403
100
AcDbArc
 50
270.0
 51
0.0
  0
ARC
  5
48F
330
1F
100
AcDbEntity
  8
DRG
  6
Continuous
 62
     7
100
AcDbCircle
 10
-76.3986049087723
 20
48.6821446837418
 30
0.0
 40
0.6299212598424901
100
AcDbArc
 50
90.0
 51
180.0
  0
ARC
  5
490
330
1F
100
AcDbEntity
  8
DRG
  6
Continuous
 62
     7
100
AcDbCircle
 10
-77.12695136546519
 20
47.6585226364977
 30
0.0
 40
0.1968503937007995
100
AcDbArc
 50
90.0
 51
180.0
  0
ARC
  5
491
330
1F
100
AcDbEntity
  8
0
  6
Continuous
 62
     7
100
AcDbCircle
 10
-119.961710096815
 20
49.10371527358459
 30
0.0
 40
0.5
100
AcDbArc
 50
90.0
 51
165.0000000000198
  0
ARC
  5
492
330
1F
100
AcDbEntity
  8
0
  6
Continuous
 62
     7
100
AcDbCircle
 10
-110.657884096815
 20
49.10371527358459
 30
0.0
 40
0.5000000000004379
100
AcDbArc
 50
14.99999999998018
 51
90.0
  0
ARC
  5
493
330
1F
100
AcDbEntity
  8
1
  6
Continuous
 62
     7
100
AcDbCircle
 10
-81.1912623890871
 20
50.37361813937069
 30
0.0
 40
0.0624999999999973
100
AcDbArc
 50
271.0341744006585
 51
0.0
  0
ARC
  5
494
330
1F
100
AcDbEntity
  8
1
  6
Continuous
 62
     7
100
AcDbCircle
 10
-81.1912623890871
 20
48.2505137477979
 30
0.0
 40
0.062499999999801
100
AcDbArc
 50
0.0
 51
88.96582559934154
  0
ARC
  5
495
330
1F
100
AcDbEntity
  8
1
  6
Continuous
 62
     7
100
AcDbCircle
 10
-66.0693726253077
 20
41.7047824790175
 30
0.0
 40
0.9999999999994664
100
AcDbArc
 50
11.53695903282688
 51
90.0
  0
ARC
  5
496
330
1F
100
AcDbEntity
  8
1
  6
Continuous
 62
     7
100
AcDbCircle
 10
-63.2568726253077
 20
-16.6031894328342
 30
0.0
 40
0.4999999999999121
100
AcDbArc
 50
125.4612814730826
 51
180.0
  0
ARC
  5
497
330
1F
100
AcDbEntity
  8
1
  6
Continuous
 62
     7
100
AcDbCircle
 10
-72.7568726253078
 20
-3.26562500000004
 30
0.0
 40
12.90250000000016
100
AcDbArc
 50
270.0
 51
90.0
  0
ARC
  5
498
330
1F
100
AcDbEntity
  8
1
  6
Continuous
 62
     7
100
AcDbCircle
 10
-72.7568726253078
 20
-3.26562500000004
 30
0.0
 40
13.05371792625416
100
AcDbArc
 50
270.0
 51
90.0
  0
ARC
  5
499
330
1F
100
AcDbEntity
  8
1
  6
Continuous
 62
     7
100
AcDbCircle
 10
-72.7568726253078
 20
-3.26562500000004
 30
0.0
 40
13.45250000000016
100
AcDbArc
 50
270.0
 51
90.0
  0
ARC
  5
49A
330
1F
100
AcDbEntity
  8
1
  6
Continuous
 62
     7
100
AcDbCircle
 10
-72.7568726253078
 20
-3.26562500000004
 30
0.0
 40
15.87500000000024
100
AcDbArc
 50
305.461281473071
 51
90.0
  0
ARC
  5
49B
330
1F
100
AcDbEntity
  8
1
  6
Continuous
 62
     7
100
AcDbCircle
 10
-72.7568726253078
 20
-3.26562500000004
 30
0.0
 40
12.12500000000016
100
AcDbArc
 50
270.0
 51
90.0
  0
ARC
  5
49C
330
1F
100
AcDbEntity
  8
1
  6
Continuous
 62
     7
100
AcDbCircle
 10
-60.9889109343667
 20
12.5527780237781
 30
0.0
 40
0.25
100
AcDbArc
 50
270.0
 51
0.0
  0
ARC
  5
49D
330
1F
100
AcDbEntity
  8
1
  6
Continuous
 62
     7
100
AcDbCircle
 10
-60.9889109343667
 20
8.62672123177809
 30
0.0
 40
0.2500000000000071
100
AcDbArc
 50
0.0
 51
90.0
  0
ARC
  5
49E
330
1F
100
AcDbEntity
  8
1
  6
Continuous
 62
     7
100
AcDbCircle
 10
-72.7568726253078
 20
-3.26562500000004
 30
0.0
 40
9.987000000000162
100
AcDbArc
 50
270.0
 51
290.914480780711
  0
ARC
  5
49F
330
1F
100
AcDbEntity
  8
1
  6
Continuous
 62
     7
100
AcDbCircle
 10
-72.7568726253078
 20
-3.26562500000004
 30
0.0
 40
11.87500000000016
100
AcDbArc
 50
270.0
 51
313.7153328082572
  0
ARC
  5
4A0
330
1F
100
AcDbEntity
  8
1
  6
Continuous
 62
     7
100
AcDbCircle
 10
-72.7568726253078
 20
-3.26562500000004
 30
0.0
 40
12.12499999999977
100
AcDbArc
 50
43.40073049106022
 51
74.90135046170927
  0
ARC
  5
4A1
330
1F
100
AcDbEntity
  8
1
  6
Continuous
 62
     7
100
AcDbCircle
 10
-72.7568726253078
 20
-3.26562500000004
 30
0.0
 40
11.87500000000015
100
AcDbArc
 50
313.7153328082572
 51
315.0000000000002
  0
ARC
  5
4A2
330
1F
100
AcDbEntity
  8
1
  6
Continuous
 62
     7
100
AcDbCircle
 10
-69.7613324729698
 20
7.83738086308608
 30
0.0
 40
0.6250000000003766
100
AcDbArc
 50
74.90135046168876
 51
180.999999999999
  0
ARC
  5
4A3
330
1F
100
AcDbEntity
  8
1
  6
Continuous
 62
     7
100
AcDbCircle
 10
-72.7568726253078
 20
-3.26562500000004
 30
0.0
 40
12.12500000000012
100
AcDbArc
 50
74.90135046170927
 51
90.0
  0
ARC
  5
4A4
330
1F
100
AcDbEntity
  8
1
  6
Continuous
 62
     7
100
AcDbCircle
 10
-69.7091329989617
 20
4.84687500000005
 30
0.0
 40
0.6250000000000508
100
AcDbArc
 50
180.9999999999997
 51
270.0
  0
ARC
  5
4A5
330
1F
100
AcDbEntity
  8
1
  6
Continuous
 62
     7
100
AcDbCircle
 10
-69.66156794703178
 20
2.12187500000002
 30
0.0
 40
0.6250000000000098
100
AcDbArc
 50
90.0
 51
181.0000000000008
  0
ARC
  5
4A6
330
1F
100
AcDbEntity
  8
1
  6
Continuous
 62
     7
100
AcDbCircle
 10
-69.4822171548947
 20
-8.15312500000009
 30
0.0
 40
0.6250000000000515
100
AcDbArc
 50
181.0000000000033
 51
270.0
  0
ARC
  5
4A7
330
1F
100
AcDbEntity
  8
1
  6
Continuous
 62
     7
100
AcDbCircle
 10
-69.4346521029647
 20
-10.8781250000001
 30
0.0
 40
0.625
100
AcDbArc
 50
90.0
 51
180.9999999999997
  0
ARC
  5
4A8
330
1F
100
AcDbEntity
  8
1
  6
Continuous
 62
     7
100
AcDbCircle
 10
-69.4148811362938
 20
-12.0108029219951
 30
0.0
 40
0.6249999999999513
100
AcDbArc
 50
180.9999999999997
 51
290.9144807807109
  0
ARC
  5
4A9
330
1F
100
AcDbEntity
  8
1
  6
Continuous
 62
     7
100
AcDbCircle
 10
-72.7568726253078
 20
-3.26562500000004
 30
0.0
 40
9.987000000000084
100
AcDbArc
 50
290.914480780711
 51
307.8856505811154
  0
ARC
  5
4AA
330
1F
100
AcDbEntity
  8
1
  6
Continuous
 62
     7
100
AcDbCircle
 10
-72.7568726253078
 20
-3.26562500000004
 30
0.0
 40
12.12500000000158
100
AcDbArc
 50
36.86989764629095
 51
43.40073049106022
  0
ARC
  5
4AB
330
1F
100
AcDbEntity
  8
1
  6
Continuous
 62
     7
100
AcDbCircle
 10
-71.2568726253478
 20
-2.14062500001402
 30
0.0
 40
10.25000000004193
100
AcDbArc
 50
26.74368395037272
 51
36.8698976463011
  0
ARC
  5
4AC
330
1F
100
AcDbEntity
  8
1
  6
Continuous
 62
     7
100
AcDbCircle
 10
-71.8380073531148
 20
4.60274489212805
 30
0.0
 40
0.3811303205310381
100
AcDbArc
 50
214.1150210909093
 51
267.8817862330408
  0
ARC
  5
4AD
330
1F
100
AcDbEntity
  8
1
  6
Continuous
 62
     7
100
AcDbCircle
 10
-71.8380073531148
 20
2.36600510787203
 30
0.0
 40
0.3811303205310024
100
AcDbArc
 50
92.1182137669592
 51
145.8849789090849
  0
ARC
  5
4AE
330
1F
100
AcDbEntity
  8
1
  6
Continuous
 62
     7
100
AcDbCircle
 10
-71.0873499834718
 20
-10.6339948921281
 30
0.0
 40
0.3811303205310218
100
AcDbArc
 50
92.11821376695694
 51
145.8849789090968
  0
ARC
  5
4AF
330
1F
100
AcDbEntity
  8
1
  6
Continuous
 62
     7
100
AcDbCircle
 10
-71.0873499834718
 20
-8.39725510787209
 30
0.0
 40
0.3811303205310277
100
AcDbArc
 50
214.115021090907
 51
267.8817862330429
  0
ARC
  5
4B0
330
1F
100
AcDbEntity
  8
1
  6
Continuous
 62
     7
100
AcDbCircle
 10
-69.0808249948818
 20
40.8927824790174
 30
0.0
 40
0.5000000000000189
100
AcDbArc
 50
100.1893258168271
 51
248.2132107018133
  0
ARC
  5
4B1
330
1F
100
AcDbEntity
  8
1
  6
Continuous
 62
     7
100
AcDbCircle
 10
-70.3798631005578
 20
37.64278247901739
 30
0.0
 40
3.000000000000056
100
AcDbArc
 50
55.39687446808989
 51
68.21321070173732
  0
ARC
  5
4B2
330
1F
100
AcDbEntity
  8
1
  6
Continuous
 62
     7
100
AcDbCircle
 10
-69.0808249948818
 20
40.8927824790174
 30
0.0
 40
0.5
100
AcDbArc
 50
90.0
 51
100.1893258168271
  0
ARC
  5
4B3
330
1F
100
AcDbEntity
  8
1
  6
Continuous
 62
     7
100
AcDbCircle
 10
-69.8405601253077
 20
24.5997500000003
 30
0.0
 40
0.2808753407319537
100
AcDbArc
 50
47.588234676053
 51
132.4117653239906
  0
ARC
  5
4B4
330
1F
100
AcDbEntity
  8
1
  6
Continuous
 62
     7
100
AcDbCircle
 10
-70.4088726253078
 20
23.8673697916673
 30
0.0
 40
1.013255208332985
100
AcDbArc
 50
68.04250662878886
 51
111.9574933712098
  0
ARC
  5
4B5
330
1F
100
AcDbEntity
  8
1
  6
Continuous
 62
     7
100
AcDbCircle
 10
-70.9771851253078
 20
24.5997500000003
 30
0.0
 40
0.2808753407320208
100
AcDbArc
 50
47.58823467603802
 51
132.411765323962
  0
ARC
  5
4B6
330
1F
100
AcDbEntity
  8
1
  6
Continuous
 62
     7
100
AcDbCircle
 10
-71.0313109253078
 20
20.4053247003762
 30
0.0
 40
0.3290503703221232
100
AcDbArc
 50
50.95302387749441
 51
129.0469761224698
  0
ARC
  5
4B7
330
1F
100
AcDbEntity
  8
1
  6
Continuous
 62
     7
100
AcDbCircle
 10
-70.4088726253078
 20
19.5251758797252
 30
0.0
 40
1.20919912027468
100
AcDbArc
 50
69.9203023283828
 51
110.0796976716367
  0
ARC
  5
4B8
330
1F
100
AcDbEntity
  8
1
  6
Continuous
 62
     7
100
AcDbCircle
 10
-69.7864343253077
 20
20.4053247003752
 30
0.0
 40
0.3290503703229348
100
AcDbArc
 50
50.95302387754212
 51
129.0469761224982
  0
ARC
  5
4B9
330
1F
100
AcDbEntity
  8
1
  6
Continuous
 62
     7
100
AcDbCircle
 10
-71.0313109253078
 20
20.1884252996242
 30
0.0
 40
0.3290503703229885
100
AcDbArc
 50
230.9530238775306
 51
309.0469761225056
  0
ARC
  5
4BA
330
1F
100
AcDbEntity
  8
1
  6
Continuous
 62
     7
100
AcDbCircle
 10
-70.4088726253078
 20
21.0685741202752
 30
0.0
 40
1.209199120275043
100
AcDbArc
 50
249.9203023283632
 51
290.0796976716009
  0
ARC
  5
4BB
330
1F
100
AcDbEntity
  8
1
  6
Continuous
 62
     7
100
AcDbCircle
 10
-69.7864343253077
 20
20.1884252996242
 30
0.0
 40
0.3290503703231228
100
AcDbArc
 50
230.9530238775018
 51
309.0469761224713
  0
ARC
  5
4BC
330
1F
100
AcDbEntity
  8
1
  6
Continuous
 62
     7
100
AcDbCircle
 10
-65.0614343253077
 20
20.1884252996242
 30
0.0
 40
0.3290503703221143
100
AcDbArc
 50
230.9530238774963
 51
309.0469761224713
  0
ARC
  5
4BD
330
1F
100
AcDbEntity
  8
1
  6
Continuous
 62
     7
100
AcDbCircle
 10
-65.6838726253077
 20
21.0685741202752
 30
0.0
 40
1.209199120275655
100
AcDbArc
 50
249.9203023283947
 51
290.0796976716367
  0
ARC
  5
4BE
330
1F
100
AcDbEntity
  8
1
  6
Continuous
 62
     7
100
AcDbCircle
 10
-66.3063109253077
 20
20.1884252996242
 30
0.0
 40
0.3290503703229974
100
AcDbArc
 50
230.9530238775287
 51
309.0469761224713
  0
ARC
  5
4BF
330
1F
100
AcDbEntity
  8
1
  6
Continuous
 62
     7
100
AcDbCircle
 10
-65.0614343253077
 20
20.4053247003752
 30
0.0
 40
0.3290503703229974
100
AcDbArc
 50
50.95302387752867
 51
129.0469761223937
  0
ARC
  5
4C0
330
1F
100
AcDbEntity
  8
1
  6
Continuous
 62
     7
100
AcDbCircle
 10
-65.6838726253077
 20
19.5251758797252
 30
0.0
 40
1.209199120275043
100
AcDbArc
 50
69.92030232836328
 51
110.0796976716054
  0
ARC
  5
4C1
330
1F
100
AcDbEntity
  8
1
  6
Continuous
 62
     7
100
AcDbCircle
 10
-66.3063109253077
 20
20.4053247003762
 30
0.0
 40
0.3290503703229947
100
AcDbArc
 50
50.95302387752829
 51
129.0469761224717
  0
ARC
  5
4C2
330
1F
100
AcDbEntity
  8
1
  6
Continuous
 62
     7
100
AcDbCircle
 10
-66.2521851253077
 20
24.5997500000003
 30
0.0
 40
0.280875340731957
100
AcDbArc
 50
47.5882346760222
 51
132.411765323947
  0
ARC
  5
4C3
330
1F
100
AcDbEntity
  8
1
  6
Continuous
 62
     7
100
AcDbCircle
 10
-65.6838726253077
 20
23.8673697916673
 30
0.0
 40
1.013255208333077
100
AcDbArc
 50
68.04250662879097
 51
111.9574933712111
  0
ARC
  5
4C4
330
1F
100
AcDbEntity
  8
1
  6
Continuous
 62
     7
100
AcDbCircle
 10
-65.1155601253077
 20
24.5997500000003
 30
0.0
 40
0.2808753407320304
100
AcDbArc
 50
47.58823467603588
 51
132.4117653239641
  0
ARC
  5
4C5
330
1F
100
AcDbEntity
  8
1
  6
Continuous
 62
     7
100
AcDbCircle
 10
-60.3905601253077
 20
24.5997500000003
 30
0.0
 40
0.2808753407320256
100
AcDbArc
 50
47.58823467603695
 51
132.4117653239746
  0
ARC
  5
4C6
330
1F
100
AcDbEntity
  8
1
  6
Continuous
 62
     7
100
AcDbCircle
 10
-60.95887262530769
 20
23.8673697916673
 30
0.0
 40
1.013255208332988
100
AcDbArc
 50
68.04250662878849
 51
111.9574933712094
  0
ARC
  5
4C7
330
1F
100
AcDbEntity
  8
1
  6
Continuous
 62
     7
100
AcDbCircle
 10
-61.5271851253077
 20
24.5997500000003
 30
0.0
 40
0.2808753407320304
100
AcDbArc
 50
47.58823467603588
 51
132.4117653239609
  0
ARC
  5
4C8
330
1F
100
AcDbEntity
  8
1
  6
Continuous
 62
     7
100
AcDbCircle
 10
-61.5813109253077
 20
20.4053247003762
 30
0.0
 40
0.3290503703221769
100
AcDbArc
 50
50.95302387748288
 51
129.0469761224698
  0
ARC
  5
4C9
330
1F
100
AcDbEntity
  8
1
  6
Continuous
 62
     7
100
AcDbCircle
 10
-60.95887262530769
 20
19.5251758797252
 30
0.0
 40
1.209199120274716
100
AcDbArc
 50
69.92030232837806
 51
110.0796976716326
  0
ARC
  5
4CA
330
1F
100
AcDbEntity
  8
1
  6
Continuous
 62
     7
100
AcDbCircle
 10
-60.3364343253077
 20
20.4053247003752
 30
0.0
 40
0.3290503703229929
100
AcDbArc
 50
50.95302387752963
 51
129.0469761224694
  0
ARC
  5
4CB
330
1F
100
AcDbEntity
  8
1
  6
Continuous
 62
     7
100
AcDbCircle
 10
-61.5813109253077
 20
20.1884252996242
 30
0.0
 40
0.3290503703229885
100
AcDbArc
 50
230.9530238775306
 51
309.0469761225172
  0
ARC
  5
4CC
330
1F
100
AcDbEntity
  8
1
  6
Continuous
 62
     7
100
AcDbCircle
 10
-60.95887262530769
 20
21.0685741202752
 30
0.0
 40
1.209199120275011
100
AcDbArc
 50
249.9203023283674
 51
290.0796976716012
  0
ARC
  5
4CD
330
1F
100
AcDbEntity
  8
1
  6
Continuous
 62
     7
100
AcDbCircle
 10
-60.3364343253077
 20
20.1884252996242
 30
0.0
 40
0.3290503703230512
100
AcDbArc
 50
230.9530238775171
 51
309.0469761224703
  0
ARC
  5
4CE
330
1F
100
AcDbEntity
  8
1
  6
Continuous
 62
     7
100
AcDbCircle
 10
-55.90743432530759
 20
20.1884252996242
 30
0.0
 40
0.3290503703221143
100
AcDbArc
 50
230.9530238774963
 51
309.0469761224703
  0
ARC
  5
4CF
330
1F
100
AcDbEntity
  8
1
  6
Continuous
 62
     7
100
AcDbCircle
 10
-56.5298726253076
 20
21.0685741202752
 30
0.0
 40
1.20919912027566
100
AcDbArc
 50
249.9203023283941
 51
290.079697671637
  0
ARC
  5
4D0
330
1F
100
AcDbEntity
  8
1
  6
Continuous
 62
     7
100
AcDbCircle
 10
-57.1523109253076
 20
20.1884252996242
 30
0.0
 40
0.3290503703229885
100
AcDbArc
 50
230.9530238775306
 51
309.0469761224703
  0
ARC
  5
4D1
330
1F
100
AcDbEntity
  8
1
  6
Continuous
 62
     7
100
AcDbCircle
 10
-55.90743432530759
 20
20.4053247003752
 30
0.0
 40
0.3290503703229929
100
AcDbArc
 50
50.95302387752963
 51
129.0469761223937
  0
ARC
  5
4D2
330
1F
100
AcDbEntity
  8
1
  6
Continuous
 62
     7
100
AcDbCircle
 10
-56.5298726253076
 20
19.5251758797252
 30
0.0
 40
1.209199120275045
100
AcDbArc
 50
69.92030232836296
 51
110.079697671606
  0
ARC
  5
4D3
330
1F
100
AcDbEntity
  8
1
  6
Continuous
 62
     7
100
AcDbCircle
 10
-57.1523109253076
 20
20.4053247003762
 30
0.0
 40
0.3290503703229902
100
AcDbArc
 50
50.95302387752925
 51
129.0469761224698
  0
ARC
  5
4D4
330
1F
100
AcDbEntity
  8
1
  6
Continuous
 62
     7
100
AcDbCircle
 10
-57.0981851253076
 20
24.5997500000003
 30
0.0
 40
0.2808753407319522
100
AcDbArc
 50
47.58823467602326
 51
132.411765323962
  0
ARC
  5
4D5
330
1F
100
AcDbEntity
  8
1
  6
Continuous
 62
     7
100
AcDbCircle
 10
-56.5298726253076
 20
23.8673697916673
 30
0.0
 40
1.013255208333077
100
AcDbArc
 50
68.04250662879097
 51
111.9574933712115
  0
ARC
  5
4D6
330
1F
100
AcDbEntity
  8
1
  6
Continuous
 62
     7
100
AcDbCircle
 10
-55.96156012530759
 20
24.5997500000003
 30
0.0
 40
0.280875340732016
100
AcDbArc
 50
47.58823467603909
 51
132.4117653239641
  0
ARC
  5
4D7
330
1F
100
AcDbEntity
  8
1
  6
Continuous
 62
     7
100
AcDbCircle
 10
-53.77356012530759
 20
24.5997500000003
 30
0.0
 40
0.280875340732016
100
AcDbArc
 50
47.58823467603909
 51
132.4117653239767
  0
ARC
  5
4D8
330
1F
100
AcDbEntity
  8
1
  6
Continuous
 62
     7
100
AcDbCircle
 10
-54.3418726253076
 20
23.8673697916673
 30
0.0
 40
1.01325520833299
100
AcDbArc
 50
68.04250662878812
 51
111.9574933712094
  0
ARC
  5
4D9
330
1F
100
AcDbEntity
  8
1
  6
Continuous
 62
     7
100
AcDbCircle
 10
-54.91018512530759
 20
24.5997500000003
 30
0.0
 40
0.280875340732016
100
AcDbArc
 50
47.58823467603909
 51
132.4117653239641
  0
ARC
  5
4DA
330
1F
100
AcDbEntity
  8
1
  6
Continuous
 62
     7
100
AcDbCircle
 10
-54.9643109253076
 20
20.4053247003762
 30
0.0
 40
0.3290503703221859
100
AcDbArc
 50
50.95302387748097
 51
129.0469761224688
  0
ARC
  5
4DB
330
1F
100
AcDbEntity
  8
1
  6
Continuous
 62
     7
100
AcDbCircle
 10
-54.3418726253076
 20
19.5251758797252
 30
0.0
 40
1.209199120274721
100
AcDbArc
 50
69.92030232837742
 51
110.0796976716317
  0
ARC
  5
4DC
330
1F
100
AcDbEntity
  8
1
  6
Continuous
 62
     7
100
AcDbCircle
 10
-53.7194343253076
 20
20.4053247003752
 30
0.0
 40
0.3290503703229929
100
AcDbArc
 50
50.95302387752963
 51
129.0469761224684
  0
ARC
  5
4DD
330
1F
100
AcDbEntity
  8
1
  6
Continuous
 62
     7
100
AcDbCircle
 10
-54.9643109253076
 20
20.1884252996242
 30
0.0
 40
0.329050370322984
100
AcDbArc
 50
230.9530238775315
 51
309.0469761225056
  0
ARC
  5
4DE
330
1F
100
AcDbEntity
  8
1
  6
Continuous
 62
     7
100
AcDbCircle
 10
-54.3418726253076
 20
21.0685741202752
 30
0.0
 40
1.209199120275038
100
AcDbArc
 50
249.9203023283639
 51
290.0796976716063
  0
ARC
  5
4DF
330
1F
100
AcDbEntity
  8
1
  6
Continuous
 62
     7
100
AcDbCircle
 10
-53.7194343253076
 20
20.1884252996242
 30
0.0
 40
0.329050370322984
100
AcDbArc
 50
230.9530238775315
 51
309.0469761224703
  0
ARC
  5
4E0
330
1F
100
AcDbEntity
  8
1
  6
Continuous
 62
     7
100
AcDbCircle
 10
-55.3312538643256
 20
20.4843750000002
 30
0.0
 40
0.25
100
AcDbArc
 50
90.0
 51
180.0
  0
ARC
  5
4E1
330
1F
100
AcDbEntity
  8
1
  6
Continuous
 62
     7
100
AcDbCircle
 10
-55.74471488398059
 20
20.3593750000002
 30
0.0
 40
0.375
100
AcDbArc
 50
90.0
 51
180.0
  0
ARC
  5
4E2
330
1F
100
AcDbEntity
  8
1
  6
Continuous
 62
     7
100
AcDbCircle
 10
-58.60504228947259
 20
16.8284081705042
 30
0.0
 40
0.2162821996450209
100
AcDbArc
 50
271.8141003705373
 51
345.4220479446532
  0
ARC
  5
4E3
330
1F
100
AcDbEntity
  8
1
  6
Continuous
 62
     7
100
AcDbCircle
 10
-58.6287881912596
 20
15.7380391841362
 30
0.0
 40
0.2453908955909886
100
AcDbArc
 50
18.23686264812163
 51
82.8383463086726
  0
ARC
  5
4E4
330
1F
100
AcDbEntity
  8
1
  6
Continuous
 62
     7
100
AcDbCircle
 10
-67.4469343253077
 20
40.84683277864139
 30
0.0
 40
0.3290503703228958
100
AcDbArc
 50
230.9530238776035
 51
309.0469761224702
  0
ARC
  5
4E5
330
1F
100
AcDbEntity
  8
1
  6
Continuous
 62
     7
100
AcDbCircle
 10
-68.0693726253077
 20
41.72698159929149
 30
0.0
 40
1.209199120274806
100
AcDbArc
 50
249.9203023283793
 51
290.0796976716346
  0
ARC
  5
4E6
330
1F
100
AcDbEntity
  8
1
  6
Continuous
 62
     7
100
AcDbCircle
 10
-68.69181092530769
 20
40.84683277864139
 30
0.0
 40
0.3290503703229919
100
AcDbArc
 50
230.9530238775279
 51
309.0469761224702
  0
ARC
  5
4E7
330
1F
100
AcDbEntity
  8
1
  6
Continuous
 62
     7
100
AcDbCircle
 10
-67.4469343253077
 20
41.0637321793925
 30
0.0
 40
0.3290503703229002
100
AcDbArc
 50
50.95302387751812
 51
129.0469761224092
  0
ARC
  5
4E8
330
1F
100
AcDbEntity
  8
1
  6
Continuous
 62
     7
100
AcDbCircle
 10
-68.0693726253077
 20
40.1835833587424
 30
0.0
 40
1.209199120275097
100
AcDbArc
 50
69.92030232836994
 51
110.0796976716225
  0
ARC
  5
4E9
330
1F
100
AcDbEntity
  8
1
  6
Continuous
 62
     7
100
AcDbCircle
 10
-68.69181092530769
 20
41.0637321793925
 30
0.0
 40
0.3290503703229002
100
AcDbArc
 50
50.95302387751812
 51
129.0469761224838
  0
ARC
  5
4EA
330
1F
100
AcDbEntity
  8
1
  6
Continuous
 62
     7
100
AcDbCircle
 10
-72.1344343253078
 20
41.0558520527144
 30
0.0
 40
0.3290503703230602
100
AcDbArc
 50
50.95302387754072
 51
129.0469761225191
  0
ARC
  5
4EB
330
1F
100
AcDbEntity
  8
1
  6
Continuous
 62
     7
100
AcDbCircle
 10
-72.1344343253078
 20
40.8389526519634
 30
0.0
 40
0.3290503703229013
100
AcDbArc
 50
230.9530238776043
 51
309.0469761224694
  0
ARC
  5
4EC
330
1F
100
AcDbEntity
  8
1
  6
Continuous
 62
     7
100
AcDbCircle
 10
-72.1344343253078
 20
41.0637321793925
 30
0.0
 40
0.3290503703229002
100
AcDbArc
 50
50.95302387751812
 51
129.0469761224819
  0
ARC
  5
4ED
330
1F
100
AcDbEntity
  8
1
  6
Continuous
 62
     7
100
AcDbCircle
 10
-72.7568726253078
 20
40.1757032320634
 30
0.0
 40
1.209199120275008
100
AcDbArc
 50
69.92030232836771
 51
89.01509828555032
  0
ARC
  5
4EE
330
1F
100
AcDbEntity
  8
1
  6
Continuous
 62
     7
100
AcDbCircle
 10
-72.7568726253078
 20
41.7191014726135
 30
0.0
 40
1.209199120274803
100
AcDbArc
 50
270.0
 51
290.0796976716351
  0
ARC
  5
4EF
330
1F
100
AcDbEntity
  8
0
  6
PHANTOM
 62
     2
100
AcDbCircle
 10
-72.7568726253078
 20
-3.26562500000004
 30
0.0
 40
15.00000000000016
100
AcDbArc
 50
270.0
 51
90.0
  0
ARC
  5
4F0
330
1F
100
AcDbEntity
  8
1
  6
Continuous
 62
     7
100
AcDbCircle
 10
-108.308425750817
 20
10.3593750000001
 30
0.0
 40
0.5
100
AcDbArc
 50
180.0
 51
270.0
  0
ARC
  5
4F1
330
1F
100
AcDbEntity
  8
1
  6
Continuous
 62
     7
100
AcDbCircle
 10
-113.35093219792
 20
37.6427824790154
 30
0.0
 40
3.000000000002665
100
AcDbArc
 50
35.00000000000534
 51
59.54968597863886
  0
ARC
  5
4F2
330
1F
100
AcDbEntity
  8
1
  6
Continuous
 62
     7
100
AcDbCircle
 10
-111.513814890831
 20
40.7677824790174
 30
0.0
 40
0.625
100
AcDbArc
 50
90.0
 51
239.5496859786356
  0
ARC
  5
4F3
330
1F
100
AcDbEntity
  8
1
  6
Continuous
 62
     7
100
AcDbCircle
 10
-112.280359796815
 20
20.1884252996242
 30
0.0
 40
0.3290503703222396
100
AcDbArc
 50
230.9530238774694
 51
309.0469761224444
  0
ARC
  5
4F4
330
1F
100
AcDbEntity
  8
1
  6
Continuous
 62
     7
100
AcDbCircle
 10
-112.902798096815
 20
21.0685741202752
 30
0.0
 40
1.209199120275723
100
AcDbArc
 50
249.9203023283858
 51
290.0796976716279
  0
ARC
  5
4F5
330
1F
100
AcDbEntity
  8
1
  6
Continuous
 62
     7
100
AcDbCircle
 10
-113.525236396815
 20
20.1884252996242
 30
0.0
 40
0.3290503703228632
100
AcDbArc
 50
230.9530238775575
 51
309.0469761224444
  0
ARC
  5
4F6
330
1F
100
AcDbEntity
  8
1
  6
Continuous
 62
     7
100
AcDbCircle
 10
-112.280359796815
 20
20.4053247003752
 30
0.0
 40
0.3290503703228721
100
AcDbArc
 50
50.95302387755558
 51
129.0469761224207
  0
ARC
  5
4F7
330
1F
100
AcDbEntity
  8
1
  6
Continuous
 62
     7
100
AcDbCircle
 10
-112.902798096815
 20
19.5251758797252
 30
0.0
 40
1.209199120274974
100
AcDbArc
 50
69.92030232837213
 51
110.0796976716142
  0
ARC
  5
4F8
330
1F
100
AcDbEntity
  8
1
  6
Continuous
 62
     7
100
AcDbCircle
 10
-113.525236396815
 20
20.4053247003762
 30
0.0
 40
0.3290503703228694
100
AcDbArc
 50
50.9530238775552
 51
129.0469761224429
  0
ARC
  5
4F9
330
1F
100
AcDbEntity
  8
1
  6
Continuous
 62
     7
100
AcDbCircle
 10
-113.471110596815
 20
24.5997500000003
 30
0.0
 40
0.2808753407318803
100
AcDbArc
 50
47.58823467603931
 51
132.4117653239492
  0
ARC
  5
4FA
330
1F
100
AcDbEntity
  8
1
  6
Continuous
 62
     7
100
AcDbCircle
 10
-112.902798096815
 20
23.8673697916673
 30
0.0
 40
1.01325520833312
100
AcDbArc
 50
68.04250662878499
 51
111.9574933712164
  0
ARC
  5
4FB
330
1F
100
AcDbEntity
  8
1
  6
Continuous
 62
     7
100
AcDbCircle
 10
-112.334485596815
 20
24.5997500000003
 30
0.0
 40
0.2808753407319537
100
AcDbArc
 50
47.588234676053
 51
132.411765323947
  0
ARC
  5
4FC
330
1F
100
AcDbEntity
  8
1
  6
Continuous
 62
     7
100
AcDbCircle
 10
-113.043236700125
 20
-11.0635816270431
 30
0.0
 40
0.125
100
AcDbArc
 50
270.0
 51
2.86395146097929
  0
ARC
  5
4FD
330
1F
100
AcDbEntity
  8
1
  6
Continuous
 62
     7
100
AcDbCircle
 10
-131.239119505813
 20
10.9072126583631
 30
0.0
 40
22.43750000000049
100
AcDbArc
 50
345.8496441949162
 51
1.41128642902005
  0
ARC
  5
4FE
330
1F
100
AcDbEntity
  8
1
  6
Continuous
 62
     7
100
AcDbCircle
 10
-310.71299164837
 20
50.6092492870656
 30
0.0
 40
206.2416763310733
100
AcDbArc
 50
345.5033859143539
 51
347.3439023522334
  0
ARC
  5
4FF
330
1F
100
AcDbEntity
  8
1
  6
Continuous
 62
     7
100
AcDbCircle
 10
-122.654302640972
 20
0.98908015688501
 30
0.0
 40
11.78882199332089
100
AcDbArc
 50
325.5775398116802
 51
350.1987504981465
  0
ARC
  5
500
330
1F
100
AcDbEntity
  8
1
  6
Continuous
 62
     7
100
AcDbCircle
 10
-109.356316976967
 20
16.8284081705042
 30
0.0
 40
0.2162821996454325
100
AcDbArc
 50
194.5779520552858
 51
268.1858996294325
  0
ARC
  5
501
330
1F
100
AcDbEntity
  8
1
  6
Continuous
 62
     7
100
AcDbCircle
 10
-109.33257107518
 20
15.7380391841362
 30
0.0
 40
0.2453908955910634
100
AcDbArc
 50
97.16165369142122
 51
161.7631373518626
  0
ARC
  5
502
330
1F
100
AcDbEntity
  8
1
  6
Continuous
 62
     7
100
AcDbCircle
 10
-112.493473400722
 20
-14.5538326548032
 30
0.0
 40
0.25
100
AcDbArc
 50
180.0
 51
270.0
  0
ARC
  5
503
330
1F
100
AcDbEntity
  8
1
  6
Continuous
 62
     7
100
AcDbCircle
 10
-109.576110596815
 20
24.5997500000003
 30
0.0
 40
0.2808753407318803
100
AcDbArc
 50
47.58823467603931
 51
132.411765323947
  0
ARC
  5
504
330
1F
100
AcDbEntity
  8
1
  6
Continuous
 62
     7
100
AcDbCircle
 10
-109.007798096815
 20
23.8673697916673
 30
0.0
 40
1.013255208333115
100
AcDbArc
 50
68.04250662878573
 51
111.9574933712171
  0
ARC
  5
505
330
1F
100
AcDbEntity
  8
1
  6
Continuous
 62
     7
100
AcDbCircle
 10
-108.439485596815
 20
24.5997500000003
 30
0.0
 40
0.2808753407319633
100
AcDbArc
 50
47.58823467605086
 51
132.411765323947
  0
ARC
  5
506
330
1F
100
AcDbEntity
  8
1
  6
Continuous
 62
     7
100
AcDbCircle
 10
-108.385359796815
 20
20.1884252996242
 30
0.0
 40
0.3290503703222485
100
AcDbArc
 50
230.9530238774675
 51
309.0469761224425
  0
ARC
  5
507
330
1F
100
AcDbEntity
  8
1
  6
Continuous
 62
     7
100
AcDbCircle
 10
-109.007798096815
 20
21.0685741202752
 30
0.0
 40
1.209199120275728
100
AcDbArc
 50
249.9203023283852
 51
290.0796976716273
  0
ARC
  5
508
330
1F
100
AcDbEntity
  8
1
  6
Continuous
 62
     7
100
AcDbCircle
 10
-109.630236396815
 20
20.1884252996242
 30
0.0
 40
0.3290503703228721
100
AcDbArc
 50
230.9530238775556
 51
309.0469761224425
  0
ARC
  5
509
330
1F
100
AcDbEntity
  8
1
  6
Continuous
 62
     7
100
AcDbCircle
 10
-108.385359796815
 20
20.4053247003752
 30
0.0
 40
0.3290503703228632
100
AcDbArc
 50
50.9530238775575
 51
129.0469761224226
  0
ARC
  5
50A
330
1F
100
AcDbEntity
  8
1
  6
Continuous
 62
     7
100
AcDbCircle
 10
-109.007798096815
 20
19.5251758797252
 30
0.0
 40
1.209199120274969
100
AcDbArc
 50
69.92030232837276
 51
110.0796976716149
  0
ARC
  5
50B
330
1F
100
AcDbEntity
  8
1
  6
Continuous
 62
     7
100
AcDbCircle
 10
-109.630236396815
 20
20.4053247003762
 30
0.0
 40
0.3290503703228604
100
AcDbArc
 50
50.95302387755711
 51
129.0469761224448
  0
ARC
  5
50C
330
1F
100
AcDbEntity
  8
1
  6
Continuous
 62
     7
100
AcDbCircle
 10
-107.435359796815
 20
20.1884252996242
 30
0.0
 40
0.3290503703222396
100
AcDbArc
 50
230.9530238774694
 51
309.0469761224444
  0
ARC
  5
50D
330
1F
100
AcDbEntity
  8
1
  6
Continuous
 62
     7
100
AcDbCircle
 10
-107.435359796815
 20
20.4053247003752
 30
0.0
 40
0.3290503703228721
100
AcDbArc
 50
50.95302387755558
 51
129.0469761224207
  0
ARC
  5
50E
330
1F
100
AcDbEntity
  8
1
  6
Continuous
 62
     7
100
AcDbCircle
 10
-108.057798096815
 20
19.5251758797252
 30
0.0
 40
1.209199120274974
100
AcDbArc
 50
69.92030232837213
 51
100.2936159884098
  0
ARC
  5
50F
330
1F
100
AcDbEntity
  8
1
  6
Continuous
 62
     7
100
AcDbCircle
 10
-108.057798096815
 20
23.8673697916673
 30
0.0
 40
1.01325520833312
100
AcDbArc
 50
68.04250662878499
 51
104.3929499781928
  0
ARC
  5
510
330
1F
100
AcDbEntity
  8
1
  6
Continuous
 62
     7
100
AcDbCircle
 10
-107.489485596815
 20
24.5997500000003
 30
0.0
 40
0.2808753407319537
100
AcDbArc
 50
47.588234676053
 51
132.411765323947
  0
ARC
  5
511
330
1F
100
AcDbEntity
  8
1
  6
Continuous
 62
     7
100
AcDbCircle
 10
-108.057798096815
 20
21.0685741202752
 30
0.0
 40
1.209199120274967
100
AcDbArc
 50
259.7063840115902
 51
290.0796976716279
  0
ARC
  5
512
330
1F
100
AcDbEntity
  8
1
  6
Continuous
 62
     7
100
AcDbCircle
 10
-107.559798096815
 20
23.8673697916673
 30
0.0
 40
1.01325520833312
100
AcDbArc
 50
68.04250662878499
 51
81.63815082043608
  0
ARC
  5
513
330
1F
100
AcDbEntity
  8
1
  6
Continuous
 62
     7
100
AcDbCircle
 10
-106.991485596815
 20
24.5997500000003
 30
0.0
 40
0.2808753407319537
100
AcDbArc
 50
47.588234676053
 51
132.411765323947
  0
ARC
  5
514
330
1F
100
AcDbEntity
  8
1
  6
Continuous
 62
     7
100
AcDbCircle
 10
-106.937359796815
 20
20.1884252996242
 30
0.0
 40
0.3290503703222396
100
AcDbArc
 50
230.9530238774694
 51
309.0469761224444
  0
ARC
  5
515
330
1F
100
AcDbEntity
  8
1
  6
Continuous
 62
     7
100
AcDbCircle
 10
-106.937359796815
 20
20.4053247003752
 30
0.0
 40
0.3290503703228721
100
AcDbArc
 50
50.95302387755558
 51
129.0469761224207
  0
ARC
  5
516
330
1F
100
AcDbEntity
  8
1
  6
Continuous
 62
     7
100
AcDbCircle
 10
-107.559798096815
 20
19.5251758797252
 30
0.0
 40
1.209199120274974
100
AcDbArc
 50
69.92030232837213
 51
77.78525869836675
  0
ARC
  5
517
330
1F
100
AcDbEntity
  8
1
  6
Continuous
 62
     7
100
AcDbCircle
 10
-107.559798096815
 20
21.0685741202752
 30
0.0
 40
1.2091991202751
100
AcDbArc
 50
282.2147413016322
 51
290.0796976716279
  0
ARC
  5
518
330
1F
100
AcDbEntity
  8
1
  6
Continuous
 62
     7
100
AcDbCircle
 10
-109.999859796815
 20
41.0637321793925
 30
0.0
 40
0.3290503703227838
100
AcDbArc
 50
50.9530238775431
 51
129.0469761224207
  0
ARC
  5
519
330
1F
100
AcDbEntity
  8
1
  6
Continuous
 62
     7
100
AcDbCircle
 10
-110.622298096815
 20
40.1835833587424
 30
0.0
 40
1.209199120275068
100
AcDbArc
 50
69.92030232837375
 51
110.0796976716314
  0
ARC
  5
51A
330
1F
100
AcDbEntity
  8
1
  6
Continuous
 62
     7
100
AcDbCircle
 10
-111.244736396815
 20
41.0637321793925
 30
0.0
 40
0.3290503703227748
100
AcDbArc
 50
50.95302387754503
 51
129.046976122455
  0
ARC
  5
51B
330
1F
100
AcDbEntity
  8
1
  6
Continuous
 62
     7
100
AcDbCircle
 10
-109.999859796815
 20
40.84683277864139
 30
0.0
 40
0.3290503703230122
100
AcDbArc
 50
230.9530238775785
 51
309.0469761224452
  0
ARC
  5
51C
330
1F
100
AcDbEntity
  8
1
  6
Continuous
 62
     7
100
AcDbCircle
 10
-110.622298096815
 20
41.72698159929149
 30
0.0
 40
1.209199120274874
100
AcDbArc
 50
249.9203023283704
 51
290.0796976716264
  0
ARC
  5
51D
330
1F
100
AcDbEntity
  8
1
  6
Continuous
 62
     7
100
AcDbCircle
 10
-111.244736396815
 20
40.84683277864139
 30
0.0
 40
0.3290503703228577
100
AcDbArc
 50
230.9530238775567
 51
309.0469761224433
  0
ARC
  5
51E
330
1F
100
AcDbEntity
  8
1
  6
Continuous
 62
     7
100
AcDbCircle
 10
-114.687359796815
 20
41.0637321793925
 30
0.0
 40
0.3290503703227838
100
AcDbArc
 50
50.9530238775431
 51
129.046976122455
  0
ARC
  5
51F
330
1F
100
AcDbEntity
  8
1
  6
Continuous
 62
     7
100
AcDbCircle
 10
-114.687359796815
 20
40.84683277864139
 30
0.0
 40
0.3290503703230122
100
AcDbArc
 50
230.9530238775785
 51
309.0469761224452
  0
ARC
  5
520
330
1F
100
AcDbEntity
  8
1
  6
Continuous
 62
     7
100
AcDbCircle
 10
-114.687359796815
 20
40.84683277864139
 30
0.0
 40
0.3290503703230122
100
AcDbArc
 50
230.9530238775785
 51
309.0469761224452
  0
ARC
  5
521
330
1F
100
AcDbEntity
  8
1
  6
Continuous
 62
     7
100
AcDbCircle
 10
-114.687359796815
 20
41.0637321793925
 30
0.0
 40
0.3290503703227838
100
AcDbArc
 50
50.9530238775431
 51
129.046976122455
  0
ARC
  5
522
330
1F
100
AcDbEntity
  8
1
  6
Continuous
 62
     7
100
AcDbCircle
 10
-115.309798096815
 20
41.72698159929149
 30
0.0
 40
1.209199120275102
100
AcDbArc
 50
270.0
 51
290.0796976716264
  0
ARC
  5
523
330
1F
100
AcDbEntity
  8
1
  6
Continuous
 62
     7
100
AcDbCircle
 10
-108.308425750817
 20
10.3593750000001
 30
0.0
 40
0.5
100
AcDbArc
 50
180.0
 51
270.0
  0
ARC
  5
524
330
1F
100
AcDbEntity
  8
1
  6
Continuous
 62
     7
100
AcDbCircle
 10
-112.493473400722
 20
-14.5538326548032
 30
0.0
 40
0.25
100
AcDbArc
 50
180.0
 51
270.0
  0
ARC
  5
525
330
1F
100
AcDbEntity
  8
1
  6
Continuous
 62
     7
100
AcDbCircle
 10
-109.33257107518
 20
15.7380391841362
 30
0.0
 40
0.2453908955910634
100
AcDbArc
 50
97.16165369142122
 51
161.7631373518626
  0
ARC
  5
526
330
1F
100
AcDbEntity
  8
1
  6
Continuous
 62
     7
100
AcDbCircle
 10
-310.71299164837
 20
50.6092492870656
 30
0.0
 40
206.2416763310733
100
AcDbArc
 50
345.5033859143539
 51
347.3439023522334
  0
ARC
  5
527
330
1F
100
AcDbEntity
  8
1
  6
Continuous
 62
     7
100
AcDbCircle
 10
-131.239119505813
 20
10.9072126583631
 30
0.0
 40
22.43750000000049
100
AcDbArc
 50
345.8496441949162
 51
1.41128642902005
  0
ARC
  5
528
330
1F
100
AcDbEntity
  8
1
  6
Continuous
 62
     7
100
AcDbCircle
 10
-112.493473400722
 20
-14.5538326548032
 30
0.0
 40
0.25
100
AcDbArc
 50
180.0
 51
270.0
  0
ARC
  5
529
330
1F
100
AcDbEntity
  8
1
  6
Continuous
 62
     7
100
AcDbCircle
 10
-105.937025778736
 20
9.1843749999921
 30
0.0
 40
1.620000000008
100
AcDbArc
 50
90.00000000007088
 51
146.3412525272799
  0
ARC
  5
52A
330
1F
100
AcDbEntity
  8
1
  6
Continuous
 62
     7
100
AcDbCircle
 10
-105.937025778738
 20
-15.7156250000002
 30
0.0
 40
1.620000000000079
100
AcDbArc
 50
213.6587474726032
 51
219.740608989483
  0
ARC
  5
52B
330
1F
100
AcDbEntity
  8
1
  6
Continuous
 62
     7
100
AcDbCircle
 10
-105.937025778738
 20
-15.7156250000002
 30
0.0
 40
1.619999999999917
100
AcDbArc
 50
219.740608989483
 51
270.0
  0
ARC
  5
52C
330
1F
100
AcDbEntity
  8
1
  6
Continuous
 62
     7
100
AcDbCircle
 10
-105.937025778738
 20
-15.7156250000002
 30
0.0
 40
1.619999999999917
100
AcDbArc
 50
219.740608989483
 51
270.0
  0
ARC
  5
52D
330
1F
100
AcDbEntity
  8
1
  6
Continuous
 62
     7
100
AcDbCircle
 10
-105.937025778738
 20
-15.7156250000002
 30
0.0
 40
1.620000000000079
100
AcDbArc
 50
213.6587474726032
 51
219.740608989483
  0
ARC
  5
52E
330
1F
100
AcDbEntity
  8
1
  6
Continuous
 62
     7
100
AcDbCircle
 10
-124.682570414892
 20
-15.7156250000002
 30
0.0
 40
1.619999999999851
100
AcDbArc
 50
320.2593910105198
 51
326.3412525274195
  0
ARC
  5
52F
330
1F
100
AcDbEntity
  8
1
  6
Continuous
 62
     7
100
AcDbCircle
 10
-124.682570414892
 20
-15.7156250000002
 30
0.0
 40
1.619999999999999
100
AcDbArc
 50
270.0000000000352
 51
320.2593910105198
  0
ARC
  5
530
330
1F
100
AcDbEntity
  8
1
  6
Continuous
 62
     7
100
AcDbCircle
 10
-124.682570414892
 20
-15.7156250000002
 30
0.0
 40
1.619999999999999
100
AcDbArc
 50
270.0000000000352
 51
320.2593910105198
  0
ARC
  5
531
330
1F
100
AcDbEntity
  8
1
  6
Continuous
 62
     7
100
AcDbCircle
 10
-124.682570414892
 20
-15.7156250000002
 30
0.0
 40
1.619999999999851
100
AcDbArc
 50
320.2593910105198
 51
326.3412525274195
  0
ARC
  5
532
330
1F
100
AcDbEntity
  8
1
  6
Continuous
 62
     7
100
AcDbCircle
 10
-124.682570414893
 20
9.1843749999921
 30
0.0
 40
1.620000000007406
100
AcDbArc
 50
33.65874747273667
 51
89.99999999992964
  0
ARC
  5
533
330
1F
100
AcDbEntity
  8
1
  6
Continuous
 62
     7
100
AcDbCircle
 10
-118.126122792908
 20
-14.5538326548032
 30
0.0
 40
0.25
100
AcDbArc
 50
270.0
 51
0.0
  0
ARC
  5
534
330
1F
100
AcDbEntity
  8
1
  6
Continuous
 62
     7
100
AcDbCircle
 10
-99.38047668781608
 20
10.9072126583631
 30
0.0
 40
22.43749999999952
100
AcDbArc
 50
178.5887135709799
 51
194.1503558050854
  0
ARC
  5
535
330
1F
100
AcDbEntity
  8
1
  6
Continuous
 62
     7
100
AcDbCircle
 10
80.0933954547399
 20
50.6092492870656
 30
0.0
 40
206.2416763310725
100
AcDbArc
 50
192.6560976477668
 51
194.496614085646
  0
ARC
  5
536
330
1F
100
AcDbEntity
  8
1
  6
Continuous
 62
     7
100
AcDbCircle
 10
-121.287025118449
 20
15.7380391841362
 30
0.0
 40
0.2453908955910696
100
AcDbArc
 50
18.23686264811541
 51
82.83834630858208
  0
ARC
  5
537
330
1F
100
AcDbEntity
  8
1
  6
Continuous
 62
     7
100
AcDbCircle
 10
-118.126122792908
 20
-14.5538326548032
 30
0.0
 40
0.25
100
AcDbArc
 50
270.0
 51
0.0
  0
ARC
  5
538
330
1F
100
AcDbEntity
  8
1
  6
Continuous
 62
     7
100
AcDbCircle
 10
-122.311170442813
 20
10.3593750000001
 30
0.0
 40
0.4999999999999893
100
AcDbArc
 50
270.0
 51
0.0
  0
ARC
  5
539
330
1F
100
AcDbEntity
  8
0
  6
PHANTOM
 62
     2
100
AcDbCircle
 10
-72.7568726253078
 20
-3.26562500000004
 30
0.0
 40
15.00000000000014
100
AcDbArc
 50
90.0
 51
270.0
  0
ARC
  5
53A
330
1F
100
AcDbEntity
  8
1
  6
Continuous
 62
     7
100
AcDbCircle
 10
-115.309798096815
 20
41.72698159929149
 30
0.0
 40
1.209199120274874
100
AcDbArc
 50
249.9203023283704
 51
270.0
  0
ARC
  5
53B
330
1F
100
AcDbEntity
  8
1
  6
Continuous
 62
     7
100
AcDbCircle
 10
-115.932236396815
 20
41.0637321793925
 30
0.0
 40
0.3290503703227748
100
AcDbArc
 50
50.95302387754503
 51
129.046976122455
  0
ARC
  5
53C
330
1F
100
AcDbEntity
  8
1
  6
Continuous
 62
     7
100
AcDbCircle
 10
-115.932236396815
 20
40.84683277864139
 30
0.0
 40
0.3290503703228577
100
AcDbArc
 50
230.9530238775567
 51
309.0469761224433
  0
ARC
  5
53D
330
1F
100
AcDbEntity
  8
1
  6
Continuous
 62
     7
100
AcDbCircle
 10
-115.932236396815
 20
40.84683277864139
 30
0.0
 40
0.3290503703228577
100
AcDbArc
 50
230.9530238775567
 51
309.0469761224433
  0
ARC
  5
53E
330
1F
100
AcDbEntity
  8
1
  6
Continuous
 62
     7
100
AcDbCircle
 10
-115.932236396815
 20
41.0637321793925
 30
0.0
 40
0.3290503703227748
100
AcDbArc
 50
50.95302387754503
 51
129.046976122455
  0
ARC
  5
53F
330
1F
100
AcDbEntity
  8
1
  6
Continuous
 62
     7
100
AcDbCircle
 10
-119.374859796815
 20
40.84683277864139
 30
0.0
 40
0.3290503703230122
100
AcDbArc
 50
230.9530238775785
 51
309.0469761224452
  0
ARC
  5
540
330
1F
100
AcDbEntity
  8
1
  6
Continuous
 62
     7
100
AcDbCircle
 10
-119.997298096815
 20
41.72698159929149
 30
0.0
 40
1.209199120274874
100
AcDbArc
 50
249.9203023283704
 51
290.0796976716264
  0
ARC
  5
541
330
1F
100
AcDbEntity
  8
1
  6
Continuous
 62
     7
100
AcDbCircle
 10
-120.619736396815
 20
40.84683277864139
 30
0.0
 40
0.3290503703228577
100
AcDbArc
 50
230.9530238775567
 51
309.0469761224433
  0
ARC
  5
542
330
1F
100
AcDbEntity
  8
1
  6
Continuous
 62
     7
100
AcDbCircle
 10
-119.374859796815
 20
41.0637321793925
 30
0.0
 40
0.3290503703227838
100
AcDbArc
 50
50.9530238775431
 51
129.0469761224207
  0
ARC
  5
543
330
1F
100
AcDbEntity
  8
1
  6
Continuous
 62
     7
100
AcDbCircle
 10
-119.997298096815
 20
40.1835833587424
 30
0.0
 40
1.209199120275068
100
AcDbArc
 50
69.92030232837375
 51
110.0796976716314
  0
ARC
  5
544
330
1F
100
AcDbEntity
  8
1
  6
Continuous
 62
     7
100
AcDbCircle
 10
-120.619736396815
 20
41.0637321793925
 30
0.0
 40
0.3290503703227748
100
AcDbArc
 50
50.95302387754503
 51
129.046976122455
  0
ARC
  5
545
330
1F
100
AcDbEntity
  8
1
  6
Continuous
 62
     7
100
AcDbCircle
 10
-123.059798096815
 20
21.0685741202752
 30
0.0
 40
1.209199120275728
100
AcDbArc
 50
249.9203023283852
 51
257.7852586983738
  0
ARC
  5
546
330
1F
100
AcDbEntity
  8
1
  6
Continuous
 62
     7
100
AcDbCircle
 10
-123.059798096815
 20
19.5251758797252
 30
0.0
 40
1.2091991202751
100
AcDbArc
 50
102.2147413016322
 51
110.0796976716311
  0
ARC
  5
547
330
1F
100
AcDbEntity
  8
1
  6
Continuous
 62
     7
100
AcDbCircle
 10
-123.682236396815
 20
20.4053247003752
 30
0.0
 40
0.3290503703228632
100
AcDbArc
 50
50.9530238775575
 51
129.0469761224425
  0
ARC
  5
548
330
1F
100
AcDbEntity
  8
1
  6
Continuous
 62
     7
100
AcDbCircle
 10
-123.682236396815
 20
20.1884252996242
 30
0.0
 40
0.3290503703228632
100
AcDbArc
 50
230.9530238775575
 51
309.0469761224425
  0
ARC
  5
549
330
1F
100
AcDbEntity
  8
1
  6
Continuous
 62
     7
100
AcDbCircle
 10
-123.628110596815
 20
24.5997500000003
 30
0.0
 40
0.2808753407318899
100
AcDbArc
 50
47.58823467603718
 51
132.411765323947
  0
ARC
  5
54A
330
1F
100
AcDbEntity
  8
1
  6
Continuous
 62
     7
100
AcDbCircle
 10
-123.059798096815
 20
23.8673697916673
 30
0.0
 40
1.013255208333083
100
AcDbArc
 50
98.36184917956395
 51
111.9574933712164
  0
ARC
  5
54B
330
1F
100
AcDbEntity
  8
1
  6
Continuous
 62
     7
100
AcDbCircle
 10
-122.561798096815
 20
21.0685741202752
 30
0.0
 40
1.209199120275728
100
AcDbArc
 50
249.9203023283852
 51
280.2936159884038
  0
ARC
  5
54C
330
1F
100
AcDbEntity
  8
1
  6
Continuous
 62
     7
100
AcDbCircle
 10
-123.130110596815
 20
24.5997500000003
 30
0.0
 40
0.2808753407318803
100
AcDbArc
 50
47.58823467603931
 51
132.411765323947
  0
ARC
  5
54D
330
1F
100
AcDbEntity
  8
1
  6
Continuous
 62
     7
100
AcDbCircle
 10
-122.561798096815
 20
23.8673697916673
 30
0.0
 40
1.013255208332936
100
AcDbArc
 50
75.60705002180501
 51
111.9574933712171
  0
ARC
  5
54E
330
1F
100
AcDbEntity
  8
1
  6
Continuous
 62
     7
100
AcDbCircle
 10
-122.561798096815
 20
19.5251758797252
 30
0.0
 40
1.209199120274967
100
AcDbArc
 50
79.70638401159023
 51
110.0796976716311
  0
ARC
  5
54F
330
1F
100
AcDbEntity
  8
1
  6
Continuous
 62
     7
100
AcDbCircle
 10
-123.184236396815
 20
20.4053247003752
 30
0.0
 40
0.3290503703228632
100
AcDbArc
 50
50.9530238775575
 51
129.0469761224444
  0
ARC
  5
550
330
1F
100
AcDbEntity
  8
1
  6
Continuous
 62
     7
100
AcDbCircle
 10
-123.184236396815
 20
20.1884252996242
 30
0.0
 40
0.3290503703228721
100
AcDbArc
 50
230.9530238775556
 51
309.0469761224425
  0
ARC
  5
551
330
1F
100
AcDbEntity
  8
1
  6
Continuous
 62
     7
100
AcDbCircle
 10
-120.989359796815
 20
20.4053247003762
 30
0.0
 40
0.3290503703228604
100
AcDbArc
 50
50.95302387755711
 51
129.0469761225325
  0
ARC
  5
552
330
1F
100
AcDbEntity
  8
1
  6
Continuous
 62
     7
100
AcDbCircle
 10
-121.611798096815
 20
19.5251758797252
 30
0.0
 40
1.209199120274969
100
AcDbArc
 50
69.92030232837276
 51
110.0796976716311
  0
ARC
  5
553
330
1F
100
AcDbEntity
  8
1
  6
Continuous
 62
     7
100
AcDbCircle
 10
-122.234236396815
 20
20.4053247003752
 30
0.0
 40
0.3290503703228721
100
AcDbArc
 50
50.95302387755558
 51
129.0469761224425
  0
ARC
  5
554
330
1F
100
AcDbEntity
  8
1
  6
Continuous
 62
     7
100
AcDbCircle
 10
-120.989359796815
 20
20.1884252996242
 30
0.0
 40
0.3290503703222485
100
AcDbArc
 50
230.9530238774675
 51
309.0469761224425
  0
ARC
  5
555
330
1F
100
AcDbEntity
  8
1
  6
Continuous
 62
     7
100
AcDbCircle
 10
-121.611798096815
 20
21.0685741202752
 30
0.0
 40
1.209199120275728
100
AcDbArc
 50
249.9203023283852
 51
290.0796976716273
  0
ARC
  5
556
330
1F
100
AcDbEntity
  8
1
  6
Continuous
 62
     7
100
AcDbCircle
 10
-122.234236396815
 20
20.1884252996242
 30
0.0
 40
0.3290503703228632
100
AcDbArc
 50
230.9530238775575
 51
309.0469761224444
  0
ARC
  5
557
330
1F
100
AcDbEntity
  8
1
  6
Continuous
 62
     7
100
AcDbCircle
 10
-122.180110596815
 20
24.5997500000003
 30
0.0
 40
0.2808753407318803
100
AcDbArc
 50
47.58823467603931
 51
132.411765323947
  0
ARC
  5
558
330
1F
100
AcDbEntity
  8
1
  6
Continuous
 62
     7
100
AcDbCircle
 10
-121.611798096815
 20
23.8673697916673
 30
0.0
 40
1.013255208333115
100
AcDbArc
 50
68.04250662878573
 51
111.9574933712171
  0
ARC
  5
559
330
1F
100
AcDbEntity
  8
1
  6
Continuous
 62
     7
100
AcDbCircle
 10
-121.043485596815
 20
24.5997500000003
 30
0.0
 40
0.2808753407319537
100
AcDbArc
 50
47.588234676053
 51
132.411765323947
  0
ARC
  5
55A
330
1F
100
AcDbEntity
  8
1
  6
Continuous
 62
     7
100
AcDbCircle
 10
-72.7568726253078
 20
41.7191014726135
 30
0.0
 40
1.209199120274808
100
AcDbArc
 50
249.92030232838
 51
270.0
  0
ARC
  5
55B
330
1F
100
AcDbEntity
  8
1
  6
Continuous
 62
     7
100
AcDbCircle
 10
-72.7568726253078
 20
40.1757032320634
 30
0.0
 40
1.209199120275087
100
AcDbArc
 50
90.98490171444834
 51
110.0796976716038
  0
ARC
  5
55C
330
1F
100
AcDbEntity
  8
1
  6
Continuous
 62
     7
100
AcDbCircle
 10
-73.37931092530779
 20
41.0637321793925
 30
0.0
 40
0.3290503703229002
100
AcDbArc
 50
50.95302387751812
 51
129.0469761224819
  0
ARC
  5
55D
330
1F
100
AcDbEntity
  8
1
  6
Continuous
 62
     7
100
AcDbCircle
 10
-73.37931092530779
 20
40.8389526519634
 30
0.0
 40
0.3290503703229885
100
AcDbArc
 50
230.9530238775306
 51
309.0469761224694
  0
ARC
  5
55E
330
1F
100
AcDbEntity
  8
1
  6
Continuous
 62
     7
100
AcDbCircle
 10
-73.37931092530779
 20
41.0558520527144
 30
0.0
 40
0.3290503703230602
100
AcDbArc
 50
50.95302387754072
 51
129.0469761224593
  0
ARC
  5
55F
330
1F
100
AcDbEntity
  8
1
  6
Continuous
 62
     7
100
AcDbCircle
 10
-76.8219343253078
 20
41.0637321793925
 30
0.0
 40
0.3290503703229002
100
AcDbArc
 50
50.95302387751812
 51
129.0469761223957
  0
ARC
  5
560
330
1F
100
AcDbEntity
  8
1
  6
Continuous
 62
     7
100
AcDbCircle
 10
-77.4443726253078
 20
40.1835833587424
 30
0.0
 40
1.209199120275136
100
AcDbArc
 50
69.92030232836488
 51
110.0796976716219
  0
ARC
  5
561
330
1F
100
AcDbEntity
  8
1
  6
Continuous
 62
     7
100
AcDbCircle
 10
-78.06681092530779
 20
41.0637321793925
 30
0.0
 40
0.3290503703229002
100
AcDbArc
 50
50.95302387751812
 51
129.0469761224953
  0
ARC
  5
562
330
1F
100
AcDbEntity
  8
1
  6
Continuous
 62
     7
100
AcDbCircle
 10
-76.8219343253078
 20
40.84683277864139
 30
0.0
 40
0.3290503703228958
100
AcDbArc
 50
230.9530238776035
 51
309.0469761224837
  0
ARC
  5
563
330
1F
100
AcDbEntity
  8
1
  6
Continuous
 62
     7
100
AcDbCircle
 10
-77.4443726253078
 20
41.72698159929149
 30
0.0
 40
1.209199120274714
100
AcDbArc
 50
249.9203023283784
 51
290.0796976716352
  0
ARC
  5
564
330
1F
100
AcDbEntity
  8
1
  6
Continuous
 62
     7
100
AcDbCircle
 10
-78.06681092530779
 20
40.84683277864139
 30
0.0
 40
0.3290503703230456
100
AcDbArc
 50
230.9530238775164
 51
309.0469761224803
  0
ARC
  5
565
330
1F
100
AcDbEntity
  8
1
  6
Continuous
 62
     7
100
AcDbCircle
 10
-118.126122792908
 20
-14.5538326548032
 30
0.0
 40
0.25
100
AcDbArc
 50
270.0
 51
0.0
  0
ARC
  5
566
330
1F
100
AcDbEntity
  8
1
  6
Continuous
 62
     7
100
AcDbCircle
 10
-121.287025118449
 20
15.7380391841362
 30
0.0
 40
0.2453908955910696
100
AcDbArc
 50
18.23686264811541
 51
82.83834630858208
  0
ARC
  5
567
330
1F
100
AcDbEntity
  8
1
  6
Continuous
 62
     7
100
AcDbCircle
 10
-121.263279216662
 20
16.8284081705042
 30
0.0
 40
0.2162821996450241
100
AcDbArc
 50
271.8141003705637
 51
345.4220479446724
  0
ARC
  5
568
330
1F
100
AcDbEntity
  8
1
  6
Continuous
 62
     7
100
AcDbCircle
 10
-107.965293552657
 20
0.98908015688501
 30
0.0
 40
11.78882199332151
100
AcDbArc
 50
189.8012495018518
 51
214.4224601883197
  0
ARC
  5
569
330
1F
100
AcDbEntity
  8
1
  6
Continuous
 62
     7
100
AcDbCircle
 10
80.0933954547399
 20
50.6092492870656
 30
0.0
 40
206.2416763310725
100
AcDbArc
 50
192.6560976477668
 51
194.496614085646
  0
ARC
  5
56A
330
1F
100
AcDbEntity
  8
1
  6
Continuous
 62
     7
100
AcDbCircle
 10
-99.38047668781608
 20
10.9072126583631
 30
0.0
 40
22.43749999999952
100
AcDbArc
 50
178.5887135709799
 51
194.1503558050854
  0
ARC
  5
56B
330
1F
100
AcDbEntity
  8
1
  6
Continuous
 62
     7
100
AcDbCircle
 10
-117.576359493504
 20
-11.0635816270431
 30
0.0
 40
0.1250000000003527
100
AcDbArc
 50
177.136048539021
 51
270.0
  0
ARC
  5
56C
330
1F
100
AcDbEntity
  8
1
  6
Continuous
 62
     7
100
AcDbCircle
 10
-86.88495705935699
 20
15.7380391841362
 30
0.0
 40
0.245390895591012
100
AcDbArc
 50
97.16165369132575
 51
161.7631373518563
  0
ARC
  5
56D
330
1F
100
AcDbEntity
  8
1
  6
Continuous
 62
     7
100
AcDbCircle
 10
-86.90870296114288
 20
16.8284081705042
 30
0.0
 40
0.2162821996449908
100
AcDbArc
 50
194.5779520553444
 51
268.1858996294325
  0
ARC
  5
56E
330
1F
100
AcDbEntity
  8
1
  6
Continuous
 62
     7
100
AcDbCircle
 10
-89.7690303666359
 20
20.3593750000002
 30
0.0
 40
0.3749999999999005
100
AcDbArc
 50
0.0
 51
90.0
  0
ARC
  5
56F
330
1F
100
AcDbEntity
  8
1
  6
Continuous
 62
     7
100
AcDbCircle
 10
-90.182491386291
 20
20.4843750000002
 30
0.0
 40
0.2500000000000142
100
AcDbArc
 50
0.0
 51
90.0
  0
ARC
  5
570
330
1F
100
AcDbEntity
  8
1
  6
Continuous
 62
     7
100
AcDbCircle
 10
-118.285110596815
 20
24.5997500000003
 30
0.0
 40
0.2808753407318803
100
AcDbArc
 50
47.58823467603931
 51
132.411765323947
  0
ARC
  5
571
330
1F
100
AcDbEntity
  8
1
  6
Continuous
 62
     7
100
AcDbCircle
 10
-117.716798096815
 20
23.8673697916673
 30
0.0
 40
1.013255208333115
100
AcDbArc
 50
68.04250662878573
 51
111.9574933712171
  0
ARC
  5
572
330
1F
100
AcDbEntity
  8
1
  6
Continuous
 62
     7
100
AcDbCircle
 10
-117.148485596815
 20
24.5997500000003
 30
0.0
 40
0.2808753407319537
100
AcDbArc
 50
47.588234676053
 51
132.4117653239492
  0
ARC
  5
573
330
1F
100
AcDbEntity
  8
1
  6
Continuous
 62
     7
100
AcDbCircle
 10
-117.094359796815
 20
20.4053247003762
 30
0.0
 40
0.3290503703228604
100
AcDbArc
 50
50.95302387755711
 51
129.0469761225306
  0
ARC
  5
574
330
1F
100
AcDbEntity
  8
1
  6
Continuous
 62
     7
100
AcDbCircle
 10
-117.716798096815
 20
19.5251758797252
 30
0.0
 40
1.209199120274974
100
AcDbArc
 50
69.92030232837213
 51
110.0796976716311
  0
ARC
  5
575
330
1F
100
AcDbEntity
  8
1
  6
Continuous
 62
     7
100
AcDbCircle
 10
-118.339236396815
 20
20.4053247003752
 30
0.0
 40
0.3290503703228632
100
AcDbArc
 50
50.9530238775575
 51
129.0469761224444
  0
ARC
  5
576
330
1F
100
AcDbEntity
  8
1
  6
Continuous
 62
     7
100
AcDbCircle
 10
-117.094359796815
 20
20.1884252996242
 30
0.0
 40
0.3290503703222396
100
AcDbArc
 50
230.9530238774694
 51
309.0469761224425
  0
ARC
  5
577
330
1F
100
AcDbEntity
  8
1
  6
Continuous
 62
     7
100
AcDbCircle
 10
-117.716798096815
 20
21.0685741202752
 30
0.0
 40
1.209199120275728
100
AcDbArc
 50
249.9203023283852
 51
290.0796976716279
  0
ARC
  5
578
330
1F
100
AcDbEntity
  8
1
  6
Continuous
 62
     7
100
AcDbCircle
 10
-118.339236396815
 20
20.1884252996242
 30
0.0
 40
0.3290503703228721
100
AcDbArc
 50
230.9530238775556
 51
309.0469761224425
  0
ARC
  5
579
330
1F
100
AcDbEntity
  8
1
  6
Continuous
 62
     7
100
AcDbCircle
 10
-91.794310925308
 20
20.1884252996242
 30
0.0
 40
0.3290503703229974
100
AcDbArc
 50
230.9530238775287
 51
309.0469761225056
  0
ARC
  5
57A
330
1F
100
AcDbEntity
  8
1
  6
Continuous
 62
     7
100
AcDbCircle
 10
-91.17187262530798
 20
21.0685741202752
 30
0.0
 40
1.209199120275043
100
AcDbArc
 50
249.9203023283632
 51
290.0796976716053
  0
ARC
  5
57B
330
1F
100
AcDbEntity
  8
1
  6
Continuous
 62
     7
100
AcDbCircle
 10
-90.54943432530798
 20
20.1884252996242
 30
0.0
 40
0.3290503703229974
100
AcDbArc
 50
230.9530238775287
 51
309.0469761224694
  0
ARC
  5
57C
330
1F
100
AcDbEntity
  8
1
  6
Continuous
 62
     7
100
AcDbCircle
 10
-91.794310925308
 20
20.4053247003752
 30
0.0
 40
0.3290503703229013
100
AcDbArc
 50
50.9530238776043
 51
129.0469761224713
  0
ARC
  5
57D
330
1F
100
AcDbEntity
  8
1
  6
Continuous
 62
     7
100
AcDbCircle
 10
-91.17187262530798
 20
19.5251758797252
 30
0.0
 40
1.209199120275652
100
AcDbArc
 50
69.92030232839461
 51
110.0796976716367
  0
ARC
  5
57E
330
1F
100
AcDbEntity
  8
1
  6
Continuous
 62
     7
100
AcDbCircle
 10
-90.54943432530798
 20
20.4053247003762
 30
0.0
 40
0.3290503703229857
100
AcDbArc
 50
50.95302387753021
 51
129.0469761224717
  0
ARC
  5
57F
330
1F
100
AcDbEntity
  8
1
  6
Continuous
 62
     7
100
AcDbCircle
 10
-90.60356012530798
 20
24.5997500000003
 30
0.0
 40
0.2808753407320208
100
AcDbArc
 50
47.58823467603802
 51
132.41176532398
  0
ARC
  5
580
330
1F
100
AcDbEntity
  8
1
  6
Continuous
 62
     7
100
AcDbCircle
 10
-91.17187262530798
 20
23.8673697916673
 30
0.0
 40
1.01325520833298
100
AcDbArc
 50
68.04250662878961
 51
111.9574933712098
  0
ARC
  5
581
330
1F
100
AcDbEntity
  8
1
  6
Continuous
 62
     7
100
AcDbCircle
 10
-91.74018512530799
 20
24.5997500000003
 30
0.0
 40
0.2808753407320208
100
AcDbArc
 50
47.58823467603802
 51
132.4117653239641
  0
ARC
  5
582
330
1F
100
AcDbEntity
  8
1
  6
Continuous
 62
     7
100
AcDbCircle
 10
-89.55218512530799
 20
24.5997500000003
 30
0.0
 40
0.2808753407319378
100
AcDbArc
 50
47.58823467602647
 51
132.411765323962
  0
ARC
  5
583
330
1F
100
AcDbEntity
  8
1
  6
Continuous
 62
     7
100
AcDbCircle
 10
-88.98387262530798
 20
23.8673697916673
 30
0.0
 40
1.013255208333115
100
AcDbArc
 50
68.04250662878573
 51
111.9574933712126
  0
ARC
  5
584
330
1F
100
AcDbEntity
  8
1
  6
Continuous
 62
     7
100
AcDbCircle
 10
-88.41556012530799
 20
24.5997500000003
 30
0.0
 40
0.2808753407320208
100
AcDbArc
 50
47.58823467603802
 51
132.411765323947
  0
ARC
  5
585
330
1F
100
AcDbEntity
  8
1
  6
Continuous
 62
     7
100
AcDbCircle
 10
-88.36143432530788
 20
20.4053247003762
 30
0.0
 40
0.3290503703229857
100
AcDbArc
 50
50.95302387753021
 51
129.0469761225191
  0
ARC
  5
586
330
1F
100
AcDbEntity
  8
1
  6
Continuous
 62
     7
100
AcDbCircle
 10
-88.98387262530798
 20
19.5251758797252
 30
0.0
 40
1.209199120275038
100
AcDbArc
 50
69.9203023283639
 51
110.0796976716185
  0
ARC
  5
587
330
1F
100
AcDbEntity
  8
1
  6
Continuous
 62
     7
100
AcDbCircle
 10
-89.60631092530798
 20
20.4053247003752
 30
0.0
 40
0.3290503703230422
100
AcDbArc
 50
50.95302387751907
 51
129.0469761224733
  0
ARC
  5
588
330
1F
100
AcDbEntity
  8
1
  6
Continuous
 62
     7
100
AcDbCircle
 10
-88.36143432530788
 20
20.1884252996242
 30
0.0
 40
0.3290503703221859
100
AcDbArc
 50
230.9530238774809
 51
309.0469761224694
  0
ARC
  5
589
330
1F
100
AcDbEntity
  8
1
  6
Continuous
 62
     7
100
AcDbCircle
 10
-88.98387262530798
 20
21.0685741202752
 30
0.0
 40
1.209199120275537
100
AcDbArc
 50
249.9203023283962
 51
290.0796976716361
  0
ARC
  5
58A
330
1F
100
AcDbEntity
  8
1
  6
Continuous
 62
     7
100
AcDbCircle
 10
-89.60631092530798
 20
20.1884252996242
 30
0.0
 40
0.3290503703230064
100
AcDbArc
 50
230.9530238775267
 51
309.0469761224919
  0
ARC
  5
58B
330
1F
100
AcDbEntity
  8
1
  6
Continuous
 62
     7
100
AcDbCircle
 10
-85.17731092530789
 20
20.1884252996242
 30
0.0
 40
0.3290503703229885
100
AcDbArc
 50
230.9530238775306
 51
309.0469761225191
  0
ARC
  5
58C
330
1F
100
AcDbEntity
  8
1
  6
Continuous
 62
     7
100
AcDbCircle
 10
-84.5548726253079
 20
21.0685741202752
 30
0.0
 40
1.209199120275003
100
AcDbArc
 50
249.9203023283684
 51
290.0796976716015
  0
ARC
  5
58D
330
1F
100
AcDbEntity
  8
1
  6
Continuous
 62
     7
100
AcDbCircle
 10
-83.9324343253079
 20
20.1884252996242
 30
0.0
 40
0.3290503703230512
100
AcDbArc
 50
230.9530238775171
 51
309.0469761224694
  0
ARC
  5
58E
330
1F
100
AcDbEntity
  8
1
  6
Continuous
 62
     7
100
AcDbCircle
 10
-85.17731092530789
 20
20.4053247003752
 30
0.0
 40
0.329050370322964
100
AcDbArc
 50
50.95302387759085
 51
129.0469761224694
  0
ARC
  5
58F
330
1F
100
AcDbEntity
  8
1
  6
Continuous
 62
     7
100
AcDbCircle
 10
-84.5548726253079
 20
19.5251758797252
 30
0.0
 40
1.209199120275622
100
AcDbArc
 50
69.9203023283984
 51
110.0796976716317
  0
ARC
  5
590
330
1F
100
AcDbEntity
  8
1
  6
Continuous
 62
     7
100
AcDbCircle
 10
-83.9324343253079
 20
20.4053247003762
 30
0.0
 40
0.3290503703229857
100
AcDbArc
 50
50.95302387753021
 51
129.0469761224832
  0
ARC
  5
591
330
1F
100
AcDbEntity
  8
1
  6
Continuous
 62
     7
100
AcDbCircle
 10
-83.98656012530789
 20
24.5997500000003
 30
0.0
 40
0.2808753407320208
100
AcDbArc
 50
47.58823467603802
 51
132.4117653239757
  0
ARC
  5
592
330
1F
100
AcDbEntity
  8
1
  6
Continuous
 62
     7
100
AcDbCircle
 10
-84.5548726253079
 20
23.8673697916673
 30
0.0
 40
1.01325520833299
100
AcDbArc
 50
68.04250662878812
 51
111.957493371209
  0
ARC
  5
593
330
1F
100
AcDbEntity
  8
1
  6
Continuous
 62
     7
100
AcDbCircle
 10
-85.1231851253079
 20
24.5997500000003
 30
0.0
 40
0.2808753407320304
100
AcDbArc
 50
47.58823467603588
 51
132.4117653239598
  0
ARC
  5
594
330
1F
100
AcDbEntity
  8
1
  6
Continuous
 62
     7
100
AcDbCircle
 10
-80.3981851253079
 20
24.5997500000003
 30
0.0
 40
0.280875340731957
100
AcDbArc
 50
47.5882346760222
 51
132.411765323962
  0
ARC
  5
595
330
1F
100
AcDbEntity
  8
1
  6
Continuous
 62
     7
100
AcDbCircle
 10
-79.82987262530789
 20
23.8673697916673
 30
0.0
 40
1.013255208333077
100
AcDbArc
 50
68.04250662879097
 51
111.9574933712119
  0
ARC
  5
596
330
1F
100
AcDbEntity
  8
1
  6
Continuous
 62
     7
100
AcDbCircle
 10
-79.26156012530788
 20
24.5997500000003
 30
0.0
 40
0.2808753407320208
100
AcDbArc
 50
47.58823467603802
 51
132.4117653239641
  0
ARC
  5
597
330
1F
100
AcDbEntity
  8
1
  6
Continuous
 62
     7
100
AcDbCircle
 10
-79.2074343253079
 20
20.4053247003762
 30
0.0
 40
0.3290503703229857
100
AcDbArc
 50
50.95302387753021
 51
129.0469761225017
  0
ARC
  5
598
330
1F
100
AcDbEntity
  8
1
  6
Continuous
 62
     7
100
AcDbCircle
 10
-79.82987262530789
 20
19.5251758797252
 30
0.0
 40
1.209199120275043
100
AcDbArc
 50
69.92030232836328
 51
110.0796976716229
  0
ARC
  5
599
330
1F
100
AcDbEntity
  8
1
  6
Continuous
 62
     7
100
AcDbCircle
 10
-80.4523109253079
 20
20.4053247003752
 30
0.0
 40
0.3290503703229885
100
AcDbArc
 50
50.95302387753059
 51
129.0469761224694
  0
ARC
  5
59A
330
1F
100
AcDbEntity
  8
1
  6
Continuous
 62
     7
100
AcDbCircle
 10
-79.2074343253079
 20
20.1884252996242
 30
0.0
 40
0.3290503703221053
100
AcDbArc
 50
230.9530238774983
 51
309.0469761224694
  0
ARC
  5
59B
330
1F
100
AcDbEntity
  8
1
  6
Continuous
 62
     7
100
AcDbCircle
 10
-79.82987262530789
 20
21.0685741202752
 30
0.0
 40
1.209199120275665
100
AcDbArc
 50
249.9203023283934
 51
290.0796976716367
  0
ARC
  5
59C
330
1F
100
AcDbEntity
  8
1
  6
Continuous
 62
     7
100
AcDbCircle
 10
-80.4523109253079
 20
20.1884252996242
 30
0.0
 40
0.3290503703230601
100
AcDbArc
 50
230.9530238775152
 51
309.0469761224694
  0
ARC
  5
59D
330
1F
100
AcDbEntity
  8
1
  6
Continuous
 62
     7
100
AcDbCircle
 10
-75.7273109253078
 20
20.1884252996242
 30
0.0
 40
0.3290503703229885
100
AcDbArc
 50
230.9530238775306
 51
309.0469761225191
  0
ARC
  5
59E
330
1F
100
AcDbEntity
  8
1
  6
Continuous
 62
     7
100
AcDbCircle
 10
-75.10487262530779
 20
21.0685741202752
 30
0.0
 40
1.209199120275008
100
AcDbArc
 50
249.9203023283677
 51
290.0796976716053
  0
ARC
  5
59F
330
1F
100
AcDbEntity
  8
1
  6
Continuous
 62
     7
100
AcDbCircle
 10
-74.4824343253078
 20
20.1884252996242
 30
0.0
 40
0.3290503703229885
100
AcDbArc
 50
230.9530238775306
 51
309.0469761224713
  0
ARC
  5
5A0
330
1F
100
AcDbEntity
  8
1
  6
Continuous
 62
     7
100
AcDbCircle
 10
-75.7273109253078
 20
20.4053247003752
 30
0.0
 40
0.329050370322964
100
AcDbArc
 50
50.95302387759085
 51
129.0469761224694
  0
ARC
  5
5A1
330
1F
100
AcDbEntity
  8
1
  6
Continuous
 62
     7
100
AcDbCircle
 10
-75.10487262530779
 20
19.5251758797252
 30
0.0
 40
1.209199120275652
100
AcDbArc
 50
69.92030232839461
 51
110.0796976716323
  0
ARC
  5
5A2
330
1F
100
AcDbEntity
  8
1
  6
Continuous
 62
     7
100
AcDbCircle
 10
-74.4824343253078
 20
20.4053247003762
 30
0.0
 40
0.3290503703229947
100
AcDbArc
 50
50.95302387752829
 51
129.0469761224698
  0
ARC
  5
5A3
330
1F
100
AcDbEntity
  8
1
  6
Continuous
 62
     7
100
AcDbCircle
 10
-74.53656012530779
 20
24.5997500000003
 30
0.0
 40
0.2808753407320112
100
AcDbArc
 50
47.58823467604016
 51
132.4117653239778
  0
ARC
  5
5A4
330
1F
100
AcDbEntity
  8
1
  6
Continuous
 62
     7
100
AcDbCircle
 10
-75.10487262530779
 20
23.8673697916673
 30
0.0
 40
1.013255208332985
100
AcDbArc
 50
68.04250662878886
 51
111.9574933712098
  0
ARC
  5
5A5
330
1F
100
AcDbEntity
  8
1
  6
Continuous
 62
     7
100
AcDbCircle
 10
-75.6731851253078
 20
24.5997500000003
 30
0.0
 40
0.2808753407320208
100
AcDbArc
 50
47.58823467603802
 51
132.4117653239641
  0
ARC
  5
5A6
330
1F
100
AcDbEntity
  8
1
  6
Continuous
 62
     7
100
AcDbCircle
 10
-119.105781302799
 20
40.7677824790174
 30
0.0
 40
0.6249999999996314
100
AcDbArc
 50
300.450314021384
 51
90.0
  0
ARC
  5
5A7
330
1F
100
AcDbEntity
  8
1
  6
Continuous
 62
     7
100
AcDbCircle
 10
-117.26866399571
 20
37.6427824790154
 30
0.0
 40
3.00000000000291
100
AcDbArc
 50
120.4503140213571
 51
144.9999999999947
  0
ARC
  5
5A8
330
1F
100
AcDbEntity
  8
1
  6
Continuous
 62
     7
100
AcDbCircle
 10
-76.4329202557348
 20
40.8927824790174
 30
0.0
 40
0.5000000000000189
100
AcDbArc
 50
79.81067418317292
 51
90.0
  0
ARC
  5
5A9
330
1F
100
AcDbEntity
  8
1
  6
Continuous
 62
     7
100
AcDbCircle
 10
-75.1338821500578
 20
37.64278247901739
 30
0.0
 40
3.000000000000151
100
AcDbArc
 50
111.786789298268
 51
124.6031255319083
  0
ARC
  5
5AA
330
1F
100
AcDbEntity
  8
1
  6
Continuous
 62
     7
100
AcDbCircle
 10
-76.4329202557348
 20
40.8927824790174
 30
0.0
 40
0.4999999999999825
100
AcDbArc
 50
291.7867892982608
 51
79.81067418317292
  0
ARC
  5
5AB
330
1F
100
AcDbEntity
  8
1
  6
Continuous
 62
     7
100
AcDbCircle
 10
-74.4263952671438
 20
-8.39725510787209
 30
0.0
 40
0.3811303205310028
100
AcDbArc
 50
272.1182137669592
 51
325.8849789090953
  0
ARC
  5
5AC
330
1F
100
AcDbEntity
  8
1
  6
Continuous
 62
     7
100
AcDbCircle
 10
-74.4263952671438
 20
-10.6339948921281
 30
0.0
 40
0.3811303205310225
100
AcDbArc
 50
34.11502109090201
 51
87.88178623304093
  0
ARC
  5
5AD
330
1F
100
AcDbEntity
  8
1
  6
Continuous
 62
     7
100
AcDbCircle
 10
-73.6757378975018
 20
2.36600510787203
 30
0.0
 40
0.3811303205310502
100
AcDbArc
 50
34.11502109090814
 51
87.88178623304081
  0
ARC
  5
5AE
330
1F
100
AcDbEntity
  8
1
  6
Continuous
 62
     7
100
AcDbCircle
 10
-73.6757378975018
 20
4.60274489212805
 30
0.0
 40
0.3811303205310019
100
AcDbArc
 50
272.1182137669592
 51
325.8849789090932
  0
ARC
  5
5AF
330
1F
100
AcDbEntity
  8
1
  6
Continuous
 62
     7
100
AcDbCircle
 10
-74.25687262526779
 20
-2.14062500001402
 30
0.0
 40
10.25000000004088
100
AcDbArc
 50
143.1301023536956
 51
153.2563160496277
  0
ARC
  5
5B0
330
1F
100
AcDbEntity
  8
1
  6
Continuous
 62
     7
100
AcDbCircle
 10
-72.7568726253078
 20
-3.26562500000004
 30
0.0
 40
12.12500000000048
100
AcDbArc
 50
136.5992695089431
 51
143.1301023537062
  0
ARC
  5
5B1
330
1F
100
AcDbEntity
  8
1
  6
Continuous
 62
     7
100
AcDbCircle
 10
-72.7568726253078
 20
-3.26562500000004
 30
0.0
 40
9.987000000000098
100
AcDbArc
 50
232.1143494188855
 51
249.0855192192892
  0
ARC
  5
5B2
330
1F
100
AcDbEntity
  8
1
  6
Continuous
 62
     7
100
AcDbCircle
 10
-76.0988641143218
 20
-12.0108029219951
 30
0.0
 40
0.6250000000005088
100
AcDbArc
 50
249.0855192192903
 51
359.0000000000003
  0
ARC
  5
5B3
330
1F
100
AcDbEntity
  8
1
  6
Continuous
 62
     7
100
AcDbCircle
 10
-76.0790931476508
 20
-10.8781250000001
 30
0.0
 40
0.6249999999999514
100
AcDbArc
 50
359.0000000000001
 51
90.0
  0
ARC
  5
5B4
330
1F
100
AcDbEntity
  8
1
  6
Continuous
 62
     7
100
AcDbCircle
 10
-76.0315280957218
 20
-8.15312500000009
 30
0.0
 40
0.6249999999999982
100
AcDbArc
 50
270.0
 51
358.9999999999965
  0
ARC
  5
5B5
330
1F
100
AcDbEntity
  8
1
  6
Continuous
 62
     7
100
AcDbCircle
 10
-75.8521773035838
 20
2.12187500000002
 30
0.0
 40
0.6249999999999514
100
AcDbArc
 50
359.0000000000001
 51
90.0
  0
ARC
  5
5B6
330
1F
100
AcDbEntity
  8
1
  6
Continuous
 62
     7
100
AcDbCircle
 10
-75.8046122516548
 20
4.84687500000005
 30
0.0
 40
0.625
100
AcDbArc
 50
270.0
 51
359.0000000000002
  0
ARC
  5
5B7
330
1F
100
AcDbEntity
  8
1
  6
Continuous
 62
     7
100
AcDbCircle
 10
-72.7568726253078
 20
-3.26562500000004
 30
0.0
 40
12.12500000000014
100
AcDbArc
 50
90.0
 51
105.0986495382907
  0
ARC
  5
5B8
330
1F
100
AcDbEntity
  8
1
  6
Continuous
 62
     7
100
AcDbCircle
 10
-75.75241277764678
 20
7.83738086308608
 30
0.0
 40
0.6249999999999369
100
AcDbArc
 50
359.000000000001
 51
105.0986495382259
  0
ARC
  5
5B9
330
1F
100
AcDbEntity
  8
1
  6
Continuous
 62
     7
100
AcDbCircle
 10
-72.7568726253078
 20
-3.26562500000004
 30
0.0
 40
11.8750000000001
100
AcDbArc
 50
225.0000000000002
 51
226.2846671917429
  0
ARC
  5
5BA
330
1F
100
AcDbEntity
  8
1
  6
Continuous
 62
     7
100
AcDbCircle
 10
-72.7568726253078
 20
-3.26562500000004
 30
0.0
 40
12.1250000000001
100
AcDbArc
 50
105.0986495382907
 51
136.5992695089431
  0
ARC
  5
5BB
330
1F
100
AcDbEntity
  8
1
  6
Continuous
 62
     7
100
AcDbCircle
 10
-72.7568726253078
 20
-3.26562500000004
 30
0.0
 40
11.87500000000014
100
AcDbArc
 50
226.2846671917429
 51
270.0
  0
ARC
  5
5BC
330
1F
100
AcDbEntity
  8
1
  6
Continuous
 62
     7
100
AcDbCircle
 10
-72.7568726253078
 20
-3.26562500000004
 30
0.0
 40
9.987000000000073
100
AcDbArc
 50
249.0855192192892
 51
270.0
  0
ARC
  5
5BD
330
1F
100
AcDbEntity
  8
1
  6
Continuous
 62
     7
100
AcDbCircle
 10
-84.52483431624988
 20
8.62672123177809
 30
0.0
 40
0.2500000000000124
100
AcDbArc
 50
90.0
 51
180.0
  0
ARC
  5
5BE
330
1F
100
AcDbEntity
  8
1
  6
Continuous
 62
     7
100
AcDbCircle
 10
-84.52483431624988
 20
12.5527780237781
 30
0.0
 40
0.25
100
AcDbArc
 50
180.0
 51
270.0
  0
ARC
  5
5BF
330
1F
100
AcDbEntity
  8
1
  6
Continuous
 62
     7
100
AcDbCircle
 10
-72.7568726253078
 20
-3.26562500000004
 30
0.0
 40
12.12500000000014
100
AcDbArc
 50
90.0
 51
270.0
  0
ARC
  5
5C0
330
1F
100
AcDbEntity
  8
1
  6
Continuous
 62
     7
100
AcDbCircle
 10
-105.937025778738
 20
-15.7156250000002
 30
0.0
 40
1.619999999999917
100
AcDbArc
 50
219.740608989483
 51
270.0
  0
ARC
  5
5C1
330
1F
100
AcDbEntity
  8
1
  6
Continuous
 62
     7
100
AcDbCircle
 10
-72.7568726253078
 20
-3.26562500000004
 30
0.0
 40
15.87500000000014
100
AcDbArc
 50
90.0
 51
234.5387185269291
  0
ARC
  5
5C2
330
1F
100
AcDbEntity
  8
1
  6
Continuous
 62
     7
100
AcDbCircle
 10
-72.7568726253078
 20
-3.26562500000004
 30
0.0
 40
13.45250000000014
100
AcDbArc
 50
90.0
 51
270.0
  0
ARC
  5
5C3
330
1F
100
AcDbEntity
  8
1
  6
Continuous
 62
     7
100
AcDbCircle
 10
-72.7568726253078
 20
-3.26562500000004
 30
0.0
 40
13.05371792625414
100
AcDbArc
 50
90.0
 51
270.0
  0
ARC
  5
5C4
330
1F
100
AcDbEntity
  8
1
  6
Continuous
 62
     7
100
AcDbCircle
 10
-72.7568726253078
 20
-3.26562500000004
 30
0.0
 40
12.90250000000014
100
AcDbArc
 50
90.0
 51
270.0
  0
ARC
  5
5C5
330
1F
100
AcDbEntity
  8
1
  6
Continuous
 62
     7
100
AcDbCircle
 10
-82.2568726253079
 20
-16.6031894328342
 30
0.0
 40
0.5000000000000142
100
AcDbArc
 50
0.0
 51
54.53871852691415
  0
ARC
  5
5C6
330
1F
100
AcDbEntity
  8
1
  6
Continuous
 62
     7
100
AcDbCircle
 10
-72.7568726253078
 20
-3.26562500000004
 30
0.0
 40
15.87500000000021
100
AcDbArc
 50
234.5387185269291
 51
305.461281473071
  0
ARC
  5
5C7
330
1F
100
AcDbEntity
  8
1
  6
Continuous
 62
     7
100
AcDbCircle
 10
-63.2568726253077
 20
-16.6031894328342
 30
0.0
 40
0.4999999999999121
100
AcDbArc
 50
125.4612814730826
 51
180.0
  0
ARC
  5
5C8
330
1F
100
AcDbEntity
  8
1
  6
Continuous
 62
     7
100
AcDbCircle
 10
-72.7568726253078
 20
-3.26562500000004
 30
0.0
 40
15.87500000000024
100
AcDbArc
 50
305.461281473071
 51
325.138513773393
  0
ARC
  5
5C9
330
1F
100
AcDbEntity
  8
1
  6
Continuous
 62
     7
100
AcDbCircle
 10
-122.311170442813
 20
10.3593750000001
 30
0.0
 40
0.4999999999999893
100
AcDbArc
 50
270.0
 51
0.0
  0
ARC
  5
5CA
330
1F
100
AcDbEntity
  8
1
  6
Continuous
 62
     7
100
AcDbCircle
 10
-105.937025778738
 20
-15.7156250000002
 30
0.0
 40
1.620000000000079
100
AcDbArc
 50
213.6587474726032
 51
219.740608989483
  0
ARC
  5
5CB
330
1F
100
AcDbEntity
  8
1
  6
Continuous
 62
     7
100
AcDbCircle
 10
-79.44437262530789
 20
41.7047824790175
 30
0.0
 40
1.0
100
AcDbArc
 50
90.0
 51
168.4630409671834
  0
ARC
  5
5CC
330
1F
100
AcDbEntity
  8
0
  6
PHANTOM
 62
     2
100
AcDbCircle
 10
-72.7568726253078
 20
-3.26562500000004
 30
0.0
 40
15.00000000000016
100
AcDbArc
 50
270.0
 51
320.0640568322342
  0
ARC
  5
5CD
330
1F
100
AcDbEntity
  8
0
  6
Continuous
 62
     4
100
AcDbCircle
 10
-115.300298096815
 20
1.15306403859014
 30
0.0
 40
0.2
100
AcDbArc
 50
90.0
 51
180.0
  0
ARC
  5
5CE
330
1F
100
AcDbEntity
  8
0
  6
Continuous
 62
     4
100
AcDbCircle
 10
-115.300298096815
 20
0.75306403859014
 30
0.0
 40
0.2000000000000028
100
AcDbArc
 50
180.0
 51
270.0
  0
ARC
  5
5CF
330
1F
100
AcDbEntity
  8
0
  6
Continuous
 62
     4
100
AcDbCircle
 10
-115.300298096815
 20
1.15306403859014
 30
0.0
 40
0.3999999999999999
100
AcDbArc
 50
90.0
 51
180.0
  0
ARC
  5
5D0
330
1F
100
AcDbEntity
  8
0
  6
Continuous
 62
     4
100
AcDbCircle
 10
-115.300298096815
 20
0.75306403859014
 30
0.0
 40
0.4000000000000057
100
AcDbArc
 50
180.0
 51
270.0
  0
ARC
  5
5D1
330
1F
100
AcDbEntity
  8
0
  6
Continuous
 62
     4
100
AcDbCircle
 10
-115.301298096814
 20
0.75206403859014
 30
0.0
 40
0.2990000000000066
100
AcDbArc
 50
180.0
 51
270.0
  0
ARC
  5
5D2
330
1F
100
AcDbEntity
  8
0
  6
Continuous
 62
     4
100
AcDbCircle
 10
-115.301298096814
 20
1.15406403859014
 30
0.0
 40
0.2990000000000002
100
AcDbArc
 50
90.0
 51
180.0
  0
ARC
  5
5D3
330
1F
100
AcDbEntity
  8
0
  6
Continuous
 62
     4
100
AcDbCircle
 10
-115.310955967895
 20
1.15306403859014
 30
0.0
 40
0.2000000000000028
100
AcDbArc
 50
0.0
 51
90.0
  0
ARC
  5
5D4
330
1F
100
AcDbEntity
  8
0
  6
Continuous
 62
     4
100
AcDbCircle
 10
-115.309955967895
 20
1.15406403859014
 30
0.0
 40
0.2990000000003598
100
AcDbArc
 50
10.38657309507401
 51
90.0
  0
ARC
  5
5D5
330
1F
100
AcDbEntity
  8
0
  6
Continuous
 62
     4
100
AcDbCircle
 10
-115.310955967895
 20
1.15306403859014
 30
0.0
 40
0.3999999999999915
100
AcDbArc
 50
0.0
 51
90.0
  0
ARC
  5
5D6
330
1F
100
AcDbEntity
  8
0
  6
Continuous
 62
     4
100
AcDbCircle
 10
-115.310955967895
 20
0.75306403859014
 30
0.0
 40
0.200000000000004
100
AcDbArc
 50
270.0
 51
0.0
  0
ARC
  5
5D7
330
1F
100
AcDbEntity
  8
0
  6
Continuous
 62
     4
100
AcDbCircle
 10
-115.310955967895
 20
0.75306403859014
 30
0.0
 40
0.4000000000000049
100
AcDbArc
 50
270.0
 51
0.0
  0
ARC
  5
5D8
330
1F
100
AcDbEntity
  8
0
  6
Continuous
 62
     4
100
AcDbCircle
 10
-115.309955967895
 20
0.75206403859014
 30
0.0
 40
0.2990000000000019
100
AcDbArc
 50
270.0
 51
349.6134269049091
  0
ARC
  5
5D9
330
1F
100
AcDbEntity
  8
0
  6
Continuous
 62
     7
100
AcDbCircle
 10
-64.2568726253077
 20
-18.6406250000002
 30
0.0
 40
0.5
100
AcDbArc
 50
270.0
 51
0.0
  0
ARC
  5
5DA
330
1F
100
AcDbEntity
  8
1
  6
Continuous
 62
     7
100
AcDbCircle
 10
-64.8193726253077
 20
41.9547824790175
 30
0.0
 40
0.25
100
AcDbArc
 50
270.0
 51
0.0
  0
ARC
  5
5DB
330
1F
100
AcDbEntity
  8
1
  6
Continuous
 62
     7
100
AcDbCircle
 10
-64.84462775391668
 20
41.9547824790175
 30
0.0
 40
0.2499999999999664
100
AcDbArc
 50
191.5369590327965
 51
270.0
  0
ARC
  5
5DC
330
1F
100
AcDbEntity
  8
1
  6
Continuous
 62
     7
100
AcDbCircle
 10
-66.0693726253077
 20
43.0797824790175
 30
0.0
 40
1.5
100
AcDbArc
 50
0.0
 51
90.0
  0
ARC
  5
5DD
330
1F
100
AcDbEntity
  8
1
  6
Continuous
 62
     7
100
AcDbCircle
 10
-66.2568726253077
 20
-3.46475464496104
 30
0.0
 40
5.249999999999993
100
AcDbArc
 50
315.0000000000003
 51
316.1851359889037
  0
ARC
  5
5DE
330
1F
100
AcDbEntity
  8
1
  6
Continuous
 62
     7
100
AcDbCircle
 10
-71.2568726253078
 20
-2.14062500000002
 30
0.0
 40
10.25000000000011
100
AcDbArc
 50
0.0
 51
26.74368395040343
  0
ARC
  5
5DF
330
1F
100
AcDbEntity
  8
1
  6
Continuous
 62
     7
100
AcDbCircle
 10
-66.2568726253077
 20
-3.46475464496104
 30
0.0
 40
5.250000000000035
100
AcDbArc
 50
316.1851359889037
 51
0.0
  0
ARC
  5
5E0
330
1F
100
AcDbEntity
  8
1
  6
Continuous
 62
     7
100
AcDbCircle
 10
-64.3105439110087
 20
4.72187500000005
 30
0.0
 40
0.5
100
AcDbArc
 50
270.0
 51
43.40073049106456
  0
ARC
  5
5E1
330
1F
100
AcDbEntity
  8
1
  6
Continuous
 62
     7
100
AcDbCircle
 10
-62.5498442143057
 20
2.24687500000003
 30
0.0
 40
0.5000000000000056
100
AcDbArc
 50
26.74368395040013
 51
90.0
  0
ARC
  5
5E2
330
1F
100
AcDbEntity
  8
1
  6
Continuous
 62
     7
100
AcDbCircle
 10
-66.9310239532257
 20
-10.7531250000001
 30
0.0
 40
0.5000000000000002
100
AcDbArc
 50
307.8856505811237
 51
90.0
  0
ARC
  5
5E3
330
1F
100
AcDbEntity
  8
1
  6
Continuous
 62
     7
100
AcDbCircle
 10
-64.35272855907469
 20
-8.27812500000009
 30
0.0
 40
0.4999999999999982
100
AcDbArc
 50
270.0
 51
315.0000000000049
  0
ARC
  5
5E4
330
1F
100
AcDbEntity
  8
1
  6
Continuous
 62
     7
100
AcDbCircle
 10
-55.4318726253086
 20
24.7943750000003
 30
0.0
 40
0.5000000000000665
100
AcDbArc
 50
227.117272827433
 51
270.0
  0
ARC
  5
5E5
330
1F
100
AcDbEntity
  8
1
  6
Continuous
 62
     7
100
AcDbCircle
 10
-58.93187262530859
 20
29.7444211113043
 30
0.0
 40
2.999999999999993
100
AcDbArc
 50
0.0
 51
55.39687446809157
  0
ARC
  5
5E6
330
1F
100
AcDbEntity
  8
1
  6
Continuous
 62
     7
100
AcDbCircle
 10
-57.0812538643256
 20
-9.77904269586411
 30
0.0
 40
1.50000000000003
100
AcDbArc
 50
289.9999999999999
 51
0.0
  0
ARC
  5
5E7
330
1F
100
AcDbEntity
  8
1
  6
Continuous
 62
     7
100
AcDbCircle
 10
-109.997298096815
 20
44.2047824790175
 30
0.0
 40
0.375
100
AcDbArc
 50
0.0
 51
90.0
  0
ARC
  5
5E8
330
1F
100
AcDbEntity
  8
1
  6
Continuous
 62
     7
100
AcDbCircle
 10
-111.809798096815
 20
35.4418148844044
 30
0.0
 40
3.0
100
AcDbArc
 50
0.0
 51
34.99999999999917
  0
ARC
  5
5E9
330
1F
100
AcDbEntity
  8
1
  6
Continuous
 62
     7
100
AcDbCircle
 10
-108.308425750817
 20
17.4120130030092
 30
0.0
 40
0.5
100
AcDbArc
 50
180.0
 51
268.0000000000271
  0
ARC
  5
5EA
330
1F
100
AcDbEntity
  8
1
  6
Continuous
 62
     7
100
AcDbCircle
 10
-108.308425750817
 20
15.1817369969912
 30
0.0
 40
0.4999999999999434
100
AcDbArc
 50
91.99999999997291
 51
180.0
  0
ARC
  5
5EB
330
1F
100
AcDbEntity
  8
1
  6
Continuous
 62
     7
100
AcDbCircle
 10
-107.059798096815
 20
15.9757971937022
 30
0.0
 40
0.2500000000000385
100
AcDbArc
 50
272.0000000000848
 51
0.0
  0
ARC
  5
5EC
330
1F
100
AcDbEntity
  8
1
  6
Continuous
 62
     7
100
AcDbCircle
 10
-107.059798096815
 20
16.6179528062982
 30
0.0
 40
0.25
100
AcDbArc
 50
0.0
 51
87.99999999991522
  0
ARC
  5
5ED
330
1F
100
AcDbEntity
  8
1
  6
Continuous
 62
     7
100
AcDbCircle
 10
-107.059798096815
 20
15.9757971937022
 30
0.0
 40
0.2500000000000385
100
AcDbArc
 50
272.0000000000848
 51
0.0
  0
ARC
  5
5EE
330
1F
100
AcDbEntity
  8
1
  6
Continuous
 62
     7
100
AcDbCircle
 10
-108.308425750817
 20
15.1817369969912
 30
0.0
 40
0.4999999999999434
100
AcDbArc
 50
91.99999999997291
 51
180.0
  0
ARC
  5
5EF
330
1F
100
AcDbEntity
  8
1
  6
Continuous
 62
     7
100
AcDbCircle
 10
-107.701614966059
 20
10.3593750000001
 30
0.0
 40
0.4999999999999893
100
AcDbArc
 50
270.0
 51
326.3412525273206
  0
ARC
  5
5F0
330
1F
100
AcDbEntity
  8
1
  6
Continuous
 62
     7
100
AcDbCircle
 10
-104.141798096815
 20
11.3663750000001
 30
0.0
 40
0.5619999999999994
100
AcDbArc
 50
270.0
 51
0.0
  0
ARC
  5
5F1
330
1F
100
AcDbEntity
  8
1
  6
Continuous
 62
     7
100
AcDbCircle
 10
-107.701614966056
 20
-16.8906250000002
 30
0.0
 40
0.4999999999998216
100
AcDbArc
 50
33.65874747261272
 51
90.0
  0
ARC
  5
5F2
330
1F
100
AcDbEntity
  8
1
  6
Continuous
 62
     7
100
AcDbCircle
 10
-104.141798096815
 20
-17.8976250000002
 30
0.0
 40
0.5619999999999976
100
AcDbArc
 50
0.0
 51
90.0
  0
ARC
  5
5F3
330
1F
100
AcDbEntity
  8
1
  6
Continuous
 62
     7
100
AcDbCircle
 10
-107.701614966056
 20
-16.8906250000002
 30
0.0
 40
0.4999999999998216
100
AcDbArc
 50
33.65874747261272
 51
90.0
  0
ARC
  5
5F4
330
1F
100
AcDbEntity
  8
1
  6
Continuous
 62
     7
100
AcDbCircle
 10
-122.917981227573
 20
-16.8906250000002
 30
0.0
 40
0.5
100
AcDbArc
 50
90.0
 51
146.3412525273778
  0
ARC
  5
5F5
330
1F
100
AcDbEntity
  8
1
  6
Continuous
 62
     7
100
AcDbCircle
 10
-126.477798096815
 20
-17.8976250000002
 30
0.0
 40
0.5620000000000012
100
AcDbArc
 50
90.0
 51
180.0
  0
ARC
  5
5F6
330
1F
100
AcDbEntity
  8
1
  6
Continuous
 62
     7
100
AcDbCircle
 10
-122.917981227573
 20
-16.8906250000002
 30
0.0
 40
0.5
100
AcDbArc
 50
90.0
 51
146.3412525273778
  0
ARC
  5
5F7
330
1F
100
AcDbEntity
  8
1
  6
Continuous
 62
     7
100
AcDbCircle
 10
-126.477798096815
 20
11.3663750000001
 30
0.0
 40
0.5620000000000118
100
AcDbArc
 50
180.0
 51
270.0
  0
ARC
  5
5F8
330
1F
100
AcDbEntity
  8
1
  6
Continuous
 62
     7
100
AcDbCircle
 10
-122.917981227571
 20
10.3593750000001
 30
0.0
 40
0.5000000000002528
100
AcDbArc
 50
213.6587474726899
 51
270.0
  0
ARC
  5
5F9
330
1F
100
AcDbEntity
  8
1
  6
Continuous
 62
     7
100
AcDbCircle
 10
-122.311170442813
 20
15.1817369969912
 30
0.0
 40
0.5
100
AcDbArc
 50
0.0
 51
88.00000000002912
  0
ARC
  5
5FA
330
1F
100
AcDbEntity
  8
1
  6
Continuous
 62
     7
100
AcDbCircle
 10
-123.559798096815
 20
15.9757971937022
 30
0.0
 40
0.25
100
AcDbArc
 50
180.0
 51
267.9999999999152
  0
ARC
  5
5FB
330
1F
100
AcDbEntity
  8
1
  6
Continuous
 62
     7
100
AcDbCircle
 10
-123.559798096815
 20
16.6179528062982
 30
0.0
 40
0.2500000000000421
100
AcDbArc
 50
92.00000000008478
 51
180.0
  0
ARC
  5
5FC
330
1F
100
AcDbEntity
  8
1
  6
Continuous
 62
     7
100
AcDbCircle
 10
-123.559798096815
 20
15.9757971937022
 30
0.0
 40
0.25
100
AcDbArc
 50
180.0
 51
267.9999999999152
  0
ARC
  5
5FD
330
1F
100
AcDbEntity
  8
1
  6
Continuous
 62
     7
100
AcDbCircle
 10
-122.311170442813
 20
15.1817369969912
 30
0.0
 40
0.5
100
AcDbArc
 50
0.0
 51
88.00000000002912
  0
ARC
  5
5FE
330
1F
100
AcDbEntity
  8
1
  6
Continuous
 62
     7
100
AcDbCircle
 10
-122.311170442813
 20
17.4120130030092
 30
0.0
 40
0.4999999999999429
100
AcDbArc
 50
271.9999999999713
 51
0.0
  0
ARC
  5
5FF
330
1F
100
AcDbEntity
  8
1
  6
Continuous
 62
     7
100
AcDbCircle
 10
-88.43249138629099
 20
-9.77904269586411
 30
0.0
 40
1.5
100
AcDbArc
 50
180.0
 51
250.0000000000003
  0
ARC
  5
600
330
1F
100
AcDbEntity
  8
1
  6
Continuous
 62
     7
100
AcDbCircle
 10
-118.809798096815
 20
35.4418148844044
 30
0.0
 40
2.999999999999992
100
AcDbArc
 50
145.0000000000009
 51
180.0
  0
ARC
  5
601
330
1F
100
AcDbEntity
  8
1
  6
Continuous
 62
     7
100
AcDbCircle
 10
-86.5818726253079
 20
29.7444211113043
 30
0.0
 40
3.000000000000047
100
AcDbArc
 50
124.6031255319102
 51
180.0
  0
ARC
  5
602
330
1F
100
AcDbEntity
  8
1
  6
Continuous
 62
     7
100
AcDbCircle
 10
-90.08187262530798
 20
24.7943750000003
 30
0.0
 40
0.5
100
AcDbArc
 50
270.0
 51
312.8827271725671
  0
ARC
  5
603
330
1F
100
AcDbEntity
  8
1
  6
Continuous
 62
     7
100
AcDbCircle
 10
-81.1610166915419
 20
-8.27812500000009
 30
0.0
 40
0.4999999999999865
100
AcDbArc
 50
224.9999999999957
 51
270.0
  0
ARC
  5
604
330
1F
100
AcDbEntity
  8
1
  6
Continuous
 62
     7
100
AcDbCircle
 10
-78.5827212973899
 20
-10.7531250000001
 30
0.0
 40
0.5
100
AcDbArc
 50
90.0
 51
232.1143494188923
  0
ARC
  5
605
330
1F
100
AcDbEntity
  8
1
  6
Continuous
 62
     7
100
AcDbCircle
 10
-82.96390103631089
 20
2.24687500000003
 30
0.0
 40
0.5
100
AcDbArc
 50
90.0
 51
153.2563160495571
  0
ARC
  5
606
330
1F
100
AcDbEntity
  8
1
  6
Continuous
 62
     7
100
AcDbCircle
 10
-81.2032013396079
 20
4.72187500000005
 30
0.0
 40
0.4999999999999725
100
AcDbArc
 50
136.5992695089377
 51
270.0
  0
ARC
  5
607
330
1F
100
AcDbEntity
  8
1
  6
Continuous
 62
     7
100
AcDbCircle
 10
-79.25687262530789
 20
-3.46475464496104
 30
0.0
 40
5.25
100
AcDbArc
 50
180.0
 51
223.8148640110962
  0
ARC
  5
608
330
1F
100
AcDbEntity
  8
1
  6
Continuous
 62
     7
100
AcDbCircle
 10
-74.25687262530779
 20
-2.14062500000002
 30
0.0
 40
10.25000000000008
100
AcDbArc
 50
153.256316049597
 51
180.0
  0
ARC
  5
609
330
1F
100
AcDbEntity
  8
1
  6
Continuous
 62
     7
100
AcDbCircle
 10
-79.25687262530789
 20
-3.46475464496104
 30
0.0
 40
5.250000000000044
100
AcDbArc
 50
223.8148640110962
 51
225.0
  0
ARC
  5
60A
330
1F
100
AcDbEntity
  8
1
  6
Continuous
 62
     7
100
AcDbCircle
 10
-104.141798096815
 20
-17.8976250000002
 30
0.0
 40
0.5619999999999976
100
AcDbArc
 50
0.0
 51
90.0
  0
ARC
  5
60B
330
1F
100
AcDbEntity
  8
1
  6
Continuous
 62
     7
100
AcDbCircle
 10
-107.701614966056
 20
-16.8906250000002
 30
0.0
 40
0.4999999999998216
100
AcDbArc
 50
33.65874747261272
 51
90.0
  0
ARC
  5
60C
330
1F
100
AcDbEntity
  8
1
  6
Continuous
 62
     7
100
AcDbCircle
 10
-79.44437262530789
 20
43.0797824790175
 30
0.0
 40
1.5
100
AcDbArc
 50
90.0
 51
180.0
  0
ARC
  5
60D
330
1F
100
AcDbEntity
  8
1
  6
Continuous
 62
     7
100
AcDbCircle
 10
-80.6691174966999
 20
41.9547824790175
 30
0.0
 40
0.25
100
AcDbArc
 50
270.0
 51
348.4630409672081
  0
ARC
  5
60E
330
1F
100
AcDbEntity
  8
1
  6
Continuous
 62
     7
100
AcDbCircle
 10
-80.6943726253079
 20
41.9547824790175
 30
0.0
 40
0.25
100
AcDbArc
 50
180.0
 51
270.0
  0
ARC
  5
60F
330
1F
100
AcDbEntity
  8
1
  6
Continuous
 62
     7
100
AcDbCircle
 10
-120.622298096815
 20
44.2047824790175
 30
0.0
 40
0.375
100
AcDbArc
 50
90.0
 51
180.0
  0
ARC
  5
610
330
1F
100
AcDbEntity
  8
0
  6
Continuous
 62
     7
100
AcDbCircle
 10
-81.2568726253079
 20
-18.6406250000002
 30
0.0
 40
0.4999999999999858
100
AcDbArc
 50
180.0
 51
270.0
  0
ARC
  5
611
330
1F
100
AcDbEntity
  8
0
  6
Continuous
 62
     7
100
AcDbCircle
 10
-64.2568726253077
 20
-18.6406250000002
 30
0.0
 40
0.5
100
AcDbArc
 50
270.0
 51
0.0
  0
CIRCLE
  5
612
330
1F
100
AcDbEntity
  8
0
  6
Continuous
 62
     7
100
AcDbCircle
 10
-115.309798096815
 20
4.15856403859018
 30
0.0
 40
0.21875
  0
CIRCLE
  5
613
330
1F
100
AcDbEntity
  8
0
  6
Continuous
 62
     7
100
AcDbCircle
 10
-115.309798096815
 20
4.15856403859018
 30
0.0
 40
0.0625
  0
CIRCLE
  5
614
330
1F
100
AcDbEntity
  8
1
  6
Continuous
 62
     7
100
AcDbCircle
 10
-69.8305177950658
 20
11.4461542060481
 30
0.0
 40
0.4375000000000995
  0
CIRCLE
  5
615
330
1F
100
AcDbEntity
  8
1
  6
Continuous
 62
     7
100
AcDbCircle
 10
-64.4233191300137
 20
9.2064191845381
 30
0.0
 40
0.4374999999999929
  0
CIRCLE
  5
616
330
1F
100
AcDbEntity
  8
1
  6
Continuous
 62
     7
100
AcDbCircle
 10
-60.28482844076969
 20
5.06792849529405
 30
0.0
 40
0.4375000000000853
  0
CIRCLE
  5
617
330
1F
100
AcDbEntity
  8
1
  6
Continuous
 62
     7
100
AcDbCircle
 10
-58.0450934192596
 20
-0.339270169758
 30
0.0
 40
0.4375
  0
CIRCLE
  5
618
330
1F
100
AcDbEntity
  8
1
  6
Continuous
 62
     7
100
AcDbCircle
 10
-58.0450934192596
 20
-6.19197983024207
 30
0.0
 40
0.4375
  0
CIRCLE
  5
619
330
1F
100
AcDbEntity
  8
1
  6
Continuous
 62
     7
100
AcDbCircle
 10
-60.28482844076969
 20
-11.5991784952941
 30
0.0
 40
0.4375000000000853
  0
CIRCLE
  5
61A
330
1F
100
AcDbEntity
  8
1
  6
Continuous
 62
     7
100
AcDbCircle
 10
-64.4233191300137
 20
-15.7376691845382
 30
0.0
 40
0.4374999999999929
  0
CIRCLE
  5
61B
330
1F
100
AcDbEntity
  8
1
  6
Continuous
 62
     7
100
AcDbCircle
 10
-69.8305177950658
 20
-17.9774042060482
 30
0.0
 40
0.4375000000000995
  0
CIRCLE
  5
61C
330
1F
100
AcDbEntity
  8
1
  6
Continuous
 62
     7
100
AcDbCircle
 10
-75.68322745554978
 20
-17.9774042060482
 30
0.0
 40
0.4374999999999858
  0
CIRCLE
  5
61D
330
1F
100
AcDbEntity
  8
1
  6
Continuous
 62
     7
100
AcDbCircle
 10
-64.4233191300137
 20
-15.7376691845382
 30
0.0
 40
0.4374999999999929
  0
CIRCLE
  5
61E
330
1F
100
AcDbEntity
  8
1
  6
Continuous
 62
     7
100
AcDbCircle
 10
-69.8305177950658
 20
-17.9774042060482
 30
0.0
 40
0.4375000000000995
  0
CIRCLE
  5
61F
330
1F
100
AcDbEntity
  8
1
  6
Continuous
 62
     7
100
AcDbCircle
 10
-75.68322745554978
 20
-17.9774042060482
 30
0.0
 40
0.4374999999999858
  0
CIRCLE
  5
620
330
1F
100
AcDbEntity
  8
1
  6
Continuous
 62
     7
100
AcDbCircle
 10
-81.09042612060189
 20
-15.7376691845382
 30
0.0
 40
0.4374999999999858
  0
CIRCLE
  5
621
330
1F
100
AcDbEntity
  8
1
  6
Continuous
 62
     7
100
AcDbCircle
 10
-85.2289168098459
 20
-11.5991784952941
 30
0.0
 40
0.4375
  0
CIRCLE
  5
622
330
1F
100
AcDbEntity
  8
1
  6
Continuous
 62
     7
100
AcDbCircle
 10
-87.46865183135698
 20
-6.19197983024207
 30
0.0
 40
0.4375000000000995
  0
CIRCLE
  5
623
330
1F
100
AcDbEntity
  8
1
  6
Continuous
 62
     7
100
AcDbCircle
 10
-87.46865183135698
 20
-0.339270169758
 30
0.0
 40
0.4375000000000995
  0
CIRCLE
  5
624
330
1F
100
AcDbEntity
  8
1
  6
Continuous
 62
     7
100
AcDbCircle
 10
-85.2289168098459
 20
5.06792849529405
 30
0.0
 40
0.4375
  0
CIRCLE
  5
625
330
1F
100
AcDbEntity
  8
1
  6
Continuous
 62
     7
100
AcDbCircle
 10
-81.09042612060189
 20
9.2064191845381
 30
0.0
 40
0.4374999999999858
  0
CIRCLE
  5
626
330
1F
100
AcDbEntity
  8
1
  6
Continuous
 62
     7
100
AcDbCircle
 10
-75.68322745554978
 20
11.4461542060481
 30
0.0
 40
0.4374999999999858
  0
LWPOLYLINE
  5
62A
330
1F
100
AcDbEntity
  8
1
  6
Continuous
 62
     7
 60
     1
100
AcDbPolyline
 90
        2
 70
     0
 43
0.0
 10
173.932968520709
 20
242.072715298968
 10
186.937968520709
 20
242.072715298968
  0
LWPOLYLINE
  5
62B
330
1F
100
AcDbEntity
  8
1
  6
Continuous
 62
     4
 60
     1
100
AcDbPolyline
 90
        2
 70
     0
 43
0.0
 10
-60.60012527475989
 20
14.3037853684874
 10
-47.5951252747597
 20
14.3037853684874
  0
LWPOLYLINE
  5
62C
330
1F
100
AcDbEntity
  8
1
  6
Continuous
 62
     7
 60
     1
100
AcDbPolyline
 90
        2
 70
     0
 43
0.0
 10
-115.562466625812
 20
5.13981403859019
 10
-115.057129567817
 20
5.13981403859019
  0
LWPOLYLINE
  5
62D
330
1F
100
AcDbEntity
  8
1
  6
Continuous
 62
     7
 60
     1
100
AcDbPolyline
 90
        2
 70
     0
 43
0.0
 10
-116.047298096815
 20
3.93981403859018
 10
-115.562466625812
 20
5.13981403859019
  0
LWPOLYLINE
  5
62E
330
1F
100
AcDbEntity
  8
0
  6
Continuous
 62
     7
 60
     1
100
AcDbPolyline
 90
        2
 70
     0
 43
0.0
 10
-115.309798096815
 20
-16.3906250000002
 10
-115.309798096815
 20
-15.3892130745352
  0
LWPOLYLINE
  5
62F
330
1F
100
AcDbEntity
  8
0
  6
Continuous
 62
     7
 60
     1
100
AcDbPolyline
 90
        4
 70
     0
 43
0.0
 10
-55.4727088565126
 20
22.5122854727632
 10
-55.4493128604576
 20
22.6245976817013
 10
-55.0356316439406
 20
22.6722593663293
 10
-53.2568726253076
 20
22.7343750000002
  0
LWPOLYLINE
  5
630
330
1F
100
AcDbEntity
  8
0
  6
Continuous
 62
     7
 60
     1
100
AcDbPolyline
 90
        2
 70
     0
 43
0.0
 10
-115.309798096815
 20
-16.3906250000002
 10
-115.309798096815
 20
-15.3892130745352
  0
LWPOLYLINE
  5
631
330
1F
100
AcDbEntity
  8
1
  6
Continuous
 62
     7
100
AcDbPolyline
 90
        2
 70
     0
 43
0.001
 10
-115.299272221712
 20
50.9415189715934
 42
0.73519091339225
 10
-115.299272221712
 20
50.9128845722523
  0
LWPOLYLINE
  5
632
330
1F
100
AcDbEntity
  8
1
  6
Continuous
 62
     7
100
AcDbPolyline
 90
        2
 70
     0
 43
0.001
 10
-114.809798096815
 20
51.06304890822199
 42
0.50598017841183
 10
-114.829272221712
 20
51.0773661078924
  0
LWPOLYLINE
  5
633
330
1F
100
AcDbEntity
  8
1
  6
Continuous
 62
     7
100
AcDbPolyline
 90
        2
 70
     0
 43
0.001
 10
-114.829272221712
 20
50.7770374359531
 42
0.5059801784133
 10
-114.809798096815
 20
50.7913546356237
  0
LWPOLYLINE
  5
634
330
1F
100
AcDbEntity
  8
1
  6
Continuous
 62
     7
100
AcDbPolyline
 90
        2
 70
     0
 43
0.001
 10
-114.809798096815
 20
51.02403086674499
 42
0.31827596861267
 10
-114.788884387626
 20
50.9945043538592
  0
LWPOLYLINE
  5
635
330
1F
100
AcDbEntity
  8
1
  6
DASHED
 62
     7
100
AcDbPolyline
 90
        2
 70
     0
 43
0.001
 10
-115.278498096815
 20
48.2563133014518
 42
0.41421356237316
 10
-115.309798096815
 20
48.2250133014519
  0
LWPOLYLINE
  5
636
330
1F
100
AcDbEntity
  8
1
  6
DASHED
 62
     7
100
AcDbPolyline
 90
        2
 70
     0
 43
0.001
 10
-115.309798096815
 20
47.97511330145179
 42
0.41421356237216
 10
-115.278498096815
 20
47.94381330145189
  0
LWPOLYLINE
  5
637
330
1F
100
AcDbEntity
  8
1
  6
Continuous
 62
     7
100
AcDbPolyline
 90
        2
 70
     0
 43
0.001
 10
-115.434798096815
 20
48.93293381962311
 42
0.05305536611436
 10
-115.309798096815
 20
48.9196325366873
  0
LWPOLYLINE
  5
638
330
1F
100
AcDbEntity
  8
1
  6
Continuous
 62
     7
100
AcDbPolyline
 90
        2
 70
     0
 43
0.001
 10
-115.468298096815
 20
50.08609541757999
 42
0.78393090870414
 10
-115.434798096815
 20
48.9329338196231
  0
LWPOLYLINE
  5
639
330
1F
100
AcDbEntity
  8
1
  6
Continuous
 62
     7
100
AcDbPolyline
 90
        2
 70
     0
 43
0.001
 10
-115.309798096815
 20
48.9196325366873
 42
0.87330870459592
 10
-115.151298096815
 20
50.08609541757999
  0
LWPOLYLINE
  5
63A
330
1F
100
AcDbEntity
  8
1
  6
Continuous
 62
     7
100
AcDbPolyline
 90
        2
 70
     0
 43
0.001
 10
-114.809798096815
 20
50.7913546356237
 10
-114.809798096815
 20
50.8175072292754
  0
LWPOLYLINE
  5
63B
330
1F
100
AcDbEntity
  8
1
  6
Continuous
 62
     7
100
AcDbPolyline
 90
        2
 70
     0
 43
0.001
 10
-115.299272221712
 20
50.9128845722523
 10
-114.829272221712
 20
50.7770374359531
  0
LWPOLYLINE
  5
63C
330
1F
100
AcDbEntity
  8
1
  6
Continuous
 62
     7
100
AcDbPolyline
 90
        2
 70
     0
 43
0.001
 10
-114.829272221712
 20
51.0773661078924
 10
-115.299272221712
 20
50.9415189715934
  0
LWPOLYLINE
  5
63D
330
1F
100
AcDbEntity
  8
1
  6
Continuous
 62
     7
100
AcDbPolyline
 90
        2
 70
     0
 43
0.001
 10
-114.809798096815
 20
51.02403086674499
 10
-114.809798096815
 20
51.06304890822199
  0
LWPOLYLINE
  5
63E
330
1F
100
AcDbEntity
  8
1
  6
Continuous
 62
     7
100
AcDbPolyline
 90
        2
 70
     0
 43
0.001
 10
-114.809798096815
 20
50.8235015905933
 10
-114.809798096815
 20
50.8175072292754
  0
LWPOLYLINE
  5
63F
330
1F
100
AcDbEntity
  8
1
  6
Continuous
 62
     7
100
AcDbPolyline
 90
        2
 70
     0
 43
0.001
 10
-114.288156617992
 20
50.53527401551109
 10
-114.243962444167
 20
50.5794681893352
  0
LWPOLYLINE
  5
640
330
1F
100
AcDbEntity
  8
1
  6
Continuous
 62
     7
100
AcDbPolyline
 90
        2
 70
     0
 43
0.001
 10
-114.243962444167
 20
50.5794681893352
 10
-114.199768270343
 20
50.62366236315939
  0
LWPOLYLINE
  5
641
330
1F
100
AcDbEntity
  8
1
  6
Continuous
 62
     7
100
AcDbPolyline
 90
        2
 70
     0
 43
0.001
 10
-115.309798096815
 20
48.2250133014519
 10
-115.309798096815
 20
47.97511330145179
  0
LWPOLYLINE
  5
642
330
1F
100
AcDbEntity
  8
1
  6
DASH_CENTER
 62
     7
100
AcDbPolyline
 90
        2
 70
     0
 43
0.001
 10
-115.309798096815
 20
47.63863253668729
 10
-115.309798096815
 20
51.3886325366874
  0
LWPOLYLINE
  5
643
330
1F
100
AcDbEntity
  8
1
  6
DASH_CENTER
 62
     7
100
AcDbPolyline
 90
        2
 70
     0
 43
0.001
 10
-113.73546175953
 20
49.5136325366874
 10
-113.42296175953
 20
49.5136325366874
  0
LWPOLYLINE
  5
644
330
1F
100
AcDbEntity
  8
1
  6
DASHED
 62
     7
100
AcDbPolyline
 90
        2
 70
     0
 43
0.001
 10
-114.841098096815
 20
48.256313301452
 10
-115.278498096815
 20
48.2563133014518
  0
LWPOLYLINE
  5
645
330
1F
100
AcDbEntity
  8
1
  6
DASHED
 62
     7
100
AcDbPolyline
 90
        2
 70
     0
 43
0.001
 10
-115.278498096815
 20
47.94381330145189
 10
-114.841098096815
 20
47.94381330145189
  0
LWPOLYLINE
  5
646
330
1F
100
AcDbEntity
  8
1
  6
DASHED
 62
     7
100
AcDbPolyline
 90
        2
 70
     0
 43
0.001
 10
-115.309798096815
 20
48.2250133014519
 10
-115.309798096815
 20
48.1000633014518
  0
LWPOLYLINE
  5
647
330
1F
100
AcDbEntity
  8
1
  6
Continuous
 62
     7
100
AcDbPolyline
 90
        2
 70
     0
 43
0.001
 10
-114.841098096815
 20
48.256313301452
 10
-115.309798096815
 20
48.1000633014518
  0
LWPOLYLINE
  5
648
330
1F
100
AcDbEntity
  8
1
  6
DASHED
 62
     7
100
AcDbPolyline
 90
        2
 70
     0
 43
0.001
 10
-115.309798096815
 20
48.1000633014518
 10
-115.309798096815
 20
47.97511330145179
  0
LWPOLYLINE
  5
649
330
1F
100
AcDbEntity
  8
1
  6
Continuous
 62
     7
100
AcDbPolyline
 90
        2
 70
     0
 43
0.001
 10
-115.309798096815
 20
48.1000633014518
 10
-114.841098096815
 20
47.94381330145189
  0
LWPOLYLINE
  5
64A
330
1F
100
AcDbEntity
  8
1
  6
Continuous
 62
     7
100
AcDbPolyline
 90
        2
 70
     0
 43
0.001
 10
-109.893557096815
 20
46.8537152735846
 10
-110.976057096815
 20
46.8537152735846
  0
LWPOLYLINE
  5
64B
330
1F
100
AcDbEntity
  8
1
  6
Continuous
 62
     7
100
AcDbPolyline
 90
        2
 70
     0
 43
0.001
 10
-114.768548096815
 20
46.8537152735846
 10
-115.851048096815
 20
46.8537152735846
  0
LWPOLYLINE
  5
64C
330
1F
100
AcDbEntity
  8
1
  6
Continuous
 62
     7
100
AcDbPolyline
 90
        2
 70
     0
 43
0.001
 10
-119.643539096815
 20
46.8537152735846
 10
-120.726039096815
 20
46.8537152735846
  0
MTEXT
  5
64E
330
1F
100
AcDbEntity
  8
1
 62
     7
100
AcDbMText
 10
-114.005001943342
 20
49.5136325366874
 30
0.0
 40
0.1
 41
0.0
 46
0.0
 71
     5
 72
     1
  1
OPEN
  7
CONVERTER_11
 11
6.123232939436872E-17
 21
1.0
 31
0.0
 73
     1
 44
0.75727272727273
  0
MTEXT
  5
650
330
1F
100
AcDbEntity
  8
0
 62
     4
100
AcDbMText
 10
-111.478630219944
 20
77.3415779446977
 30
0.0
 40
1.0
 41
0.0
 46
0.0
 71
     7
 72
     1
  1
AMERICAN FLOW CONTROL SERIES 2500\PRESILIENT SEATED GATE VALVE WITH\PMECHANICAL JOINT ENDS AND\PBEVEL GEAR ACTUATOR
  7
CONVERTER_12
 73
     1
 44
1.0
  0
TEXT
  5
651
330
1F
100
AcDbEntity
  8
1
 62
     6
100
AcDbText
 10
-94.4846616076745
 20
-20.9797403280587
 30
0.0
 40
0.75
  1
91-21319
 41
0.9
  7
CONVERTER_12
100
AcDbText
  0
DIMENSION
  5
65E
330
1F
100
AcDbEntity
  8
1
100
AcDbDimension
280
     0
  2
*D1
 10
-106.1222980968152
 20
-22.9569822540585
 30
0.0
 11
-115.95541335873
 21
-22.9569822540585
 31
0.0
 70
    32
  1
LAY LENGTH
 71
     5
 42
-1.0
 73
     0
 74
     0
 75
     0
 53
0.00013888888889
  3
ME10_DIM_10
100
AcDbAlignedDimension
 13
-124.497298096815
 23
-16.7941604513282
 33
0.0
 14
-106.122298096815
 24
-16.7941604513282
 34
0.0
100
AcDbRotatedDimension
  0
DIMENSION
  5
66A
330
1F
100
AcDbEntity
  8
1
100
AcDbDimension
280
     0
  2
*D2
 10
-102.4972980968151
 20
-29.1730168507884
 30
0.0
 11
-116.407488602129
 21
-29.1730168507884
 31
0.0
 70
    32
  1
W
 71
     5
 42
-1.0
 73
     0
 74
     0
 75
     0
 53
0.00013888888889
  3
ME10_DIM_11
100
AcDbAlignedDimension
 13
-128.122298096815
 23
-16.7181250000002
 33
0.0
 14
-102.497298096815
 24
-16.7181250000002
 34
0.0
100
AcDbRotatedDimension
  0
DIMENSION
  5
676
330
1F
100
AcDbEntity
  8
1
100
AcDbDimension
280
     0
  2
*D3
 10
-106.4347980968152
 20
30.2569872910456
 30
0.0
 11
-118.16522546581
 21
30.2569872910456
 31
0.0
 70
    32
  1
V
 71
     5
 42
-1.0
 73
     0
 74
     0
 75
     0
 53
0.00013888888889
  3
ME10_DIM_12
100
AcDbAlignedDimension
 13
-124.184798096815
 23
22.7943750000002
 33
0.0
 14
-106.434798096815
 24
22.7343750000002
 34
0.0
100
AcDbRotatedDimension
  0
DIMENSION
  5
682
330
1F
100
AcDbEntity
  8
1
100
AcDbDimension
280
     0
  2
*D4
 10
-53.25687262530758
 20
30.5699964121588
 30
0.0
 11
-80.60413093221568
 21
30.5699964121588
 31
0.0
 70
    32
  1
F
 71
     5
 42
-1.0
 73
     0
 74
     0
 75
     0
 53
0.00013888888889
  3
ME10_DIM_13
100
AcDbAlignedDimension
 13
-92.25687262530799
 23
22.7943750000002
 33
0.0
 14
-53.2568726253076
 24
22.7943750000002
 34
0.0
100
AcDbRotatedDimension
  0
DIMENSION
  5
68E
330
1F
100
AcDbEntity
  8
1
100
AcDbDimension
280
     0
  2
*D5
 10
-83.12876238908726
 20
58.2912179502556
 30
0.0
 11
-77.6188484000577
 21
58.2912179502556
 31
0.0
 70
    32
  1
10-3/8
 71
     5
 42
-1.0
 73
     0
 74
     0
 75
     0
 53
0.00013888888889
  3
ME10_DIM_14
100
AcDbAlignedDimension
 13
-72.7568726253078
 23
51.07437033118559
 33
0.0
 14
-83.1287623890873
 24
49.8435659435843
 34
0.0
100
AcDbRotatedDimension
  0
DIMENSION
  5
69A
330
1F
100
AcDbEntity
  8
1
100
AcDbDimension
280
     0
  2
*D6
 10
-136.030113350979
 20
49.51119558854531
 30
0.0
 11
-136.030113350979
 21
25.4769397252543
 31
0.0
 70
    32
  1
D
 71
     5
 42
-1.0
 73
     0
 74
     0
 75
     0
 53
90.0
  3
ME10_DIM_15
100
AcDbAlignedDimension
 13
-130.924027457391
 23
-3.26562500000004
 33
0.0
 14
-114.600472615883
 24
49.5111955885453
 34
0.0
 50
90.0
100
AcDbRotatedDimension
  0
DIMENSION
  5
6A6
330
1F
100
AcDbEntity
  8
1
100
AcDbDimension
280
     0
  2
*D7
 10
-91.29662423937688
 20
48.34578025483934
 30
0.0
 11
-91.29662423937688
 21
54.0629021128464
 31
0.0
 70
    32
  1
2 SQ.
 71
     5
 42
-1.0
 73
     0
 74
     0
 75
     0
 53
90.0
  3
ME10_DIM_16
100
AcDbAlignedDimension
 13
-83.005845433129
 23
50.27835163232929
 33
0.0
 14
-83.005845433129
 24
48.3457802548393
 34
0.0
 50
90.0
100
AcDbRotatedDimension
  0
HATCH
  5
6A7
330
1F
100
AcDbEntity
  8
0
  6
Continuous
 62
     2
100
AcDbHatch
 10
0.0
 20
0.0
 30
0.0
210
0.0
220
0.0
230
1.0
  2
SOLID
 70
     1
 71
     1
 91
        1
 92
        1
 93
        3
 72
     1
 10
-85.6459503595559
 20
-12.5474721944601
 11
-85.4569014783249
 21
-11.9725807461421
 72
     1
 10
-85.4569014783249
 20
-11.9725807461421
 11
-85.78830153082788
 21
-12.4789537924671
 72
     1
 10
-85.78830153082788
 20
-12.4789537924671
 11
-85.6459503595559
 21
-12.5474721944601
 97
        3
330
104
330
105
330
106
 75
     0
 76
     1
 98
        1
 10
0.0
 20
0.0
  0
HATCH
  5
6A8
330
1F
100
AcDbEntity
  8
0
  6
Continuous
 62
     4
100
AcDbHatch
 10
0.0
 20
0.0
 30
0.0
210
0.0
220
0.0
230
1.0
  2
_USER
 70
     0
 71
     0
 91
        2
 92
        1
 93
       32
 72
     1
 10
-115.528548096815
 20
4.158564038590179
 11
-115.524187660717
 21
4.11510512247878
 72
     1
 10
-115.524187660717
 20
4.11510512247878
 11
-115.511280189253
 21
4.07337877621017
 72
     1
 10
-115.511280189253
 20
4.07337877621017
 11
-115.490340262576
 21
4.03504849753497
 72
     1
 10
-115.490340262576
 20
4.03504849753497
 11
-115.462202689484
 21
4.00164239370588
 72
     1
 10
-115.462202689484
 20
4.00164239370588
 11
-115.427989226223
 21
3.97449226066347
 72
     1
 10
-115.427989226223
 20
3.97449226066347
 11
-115.389063855606
 21
3.95468048853477
 72
     1
 10
-115.389063855606
 20
3.95468048853477
 11
-115.346978409324
 21
3.94299691015517
 72
     1
 10
-115.346978409324
 20
3.94299691015517
 11
-115.303410701311
 21
3.939907312924869
 72
     1
 10
-115.303410701311
 20
3.939907312924869
 11
-115.2600976386
 21
3.945534869335579
 72
     1
 10
-115.2600976386
 20
3.945534869335579
 11
-115.21876597632
 21
3.95965522647208
 72
     1
 10
-115.21876597632
 20
3.95965522647208
 11
-115.181063477415
 21
3.98170545025458
 72
     1
 10
-115.181063477415
 20
3.98170545025458
 11
-115.14849322154
 21
4.01080646784458
 72
     1
 10
-115.14849322154
 20
4.01080646784458
 11
-115.122353682015
 21
4.04579811350417
 72
     1
 10
-115.122353682015
 20
4.04579811350417
 11
-115.103686959793
 21
4.085285380743579
 72
     1
 10
-115.103686959793
 20
4.085285380743579
 11
-115.093237238183
 21
4.12769403682708
 72
     1
 10
-115.093237238183
 20
4.12769403682708
 11
-115.091421114609
 21
4.171333382464979
 72
     1
 10
-115.091421114609
 20
4.171333382464979
 11
-115.098310992188
 21
4.21446365465848
 72
     1
 10
-115.098310992188
 20
4.21446365465848
 11
-115.113632193242
 21
4.25536538556088
 72
     1
 10
-115.113632193242
 20
4.25536538556088
 11
-115.136773909833
 21
4.29240795223388
 72
     1
 10
-115.136773909833
 20
4.29240795223388
 11
-115.166813554751
 21
4.324114584438779
 72
     1
 10
-115.166813554751
 20
4.324114584438779
 11
-115.202553542146
 21
4.34922123880568
 72
     1
 10
-115.202553542146
 20
4.34922123880568
 11
-115.242569031507
 21
4.36672699225348
 72
     1
 10
-115.242569031507
 20
4.36672699225348
 11
-115.285264731548
 21
4.37593394563498
 72
     1
 10
-115.285264731548
 20
4.37593394563498
 11
-115.328938499442
 21
4.37647504677298
 72
     1
 10
-115.328938499442
 20
4.37647504677298
 11
-115.371849199885
 21
4.36832872367268
 72
     1
 10
-115.371849199885
 20
4.36832872367268
 11
-115.412286118662
 21
4.35181974452898
 72
     1
 10
-115.412286118662
 20
4.35181974452898
 11
-115.448637163427
 21
4.32760627024308
 72
     1
 10
-115.448637163427
 20
4.32760627024308
 11
-115.479453132739
 21
4.296653615624779
 72
     1
 10
-115.479453132739
 20
4.296653615624779
 11
-115.503505491146
 21
4.260195765336879
 72
     1
 10
-115.503505491146
 20
4.260195765336879
 11
-115.519835347019
 21
4.21968617882118
 72
     1
 10
-115.519835347019
 20
4.21968617882118
 11
-115.527791680538
 21
4.17673984545648
 72
     1
 10
-115.527791680538
 20
4.17673984545648
 11
-115.528548096815
 21
4.158564038590179
 97
        0
 92
       16
 93
       32
 72
     1
 10
-115.372298096815
 20
4.158564038590179
 11
-115.37105225793
 21
4.14614720541548
 72
     1
 10
-115.37105225793
 20
4.14614720541548
 11
-115.36736440894
 21
4.13422539219588
 72
     1
 10
-115.36736440894
 20
4.13422539219588
 11
-115.361381572746
 21
4.12327388400298
 72
     1
 10
-115.361381572746
 20
4.12327388400298
 11
-115.353342266149
 21
4.11372928290898
 72
     1
 10
-115.353342266149
 20
4.11372928290898
 11
-115.343566990931
 21
4.10597210203968
 72
     1
 10
-115.343566990931
 20
4.10597210203968
 11
-115.332445456469
 21
4.10031159571718
 72
     1
 10
-115.332445456469
 20
4.10031159571718
 11
-115.320421043246
 21
4.09697343046588
 72
     1
 10
-115.320421043246
 20
4.09697343046588
 11
-115.307973126671
 21
4.09609068840008
 72
     1
 10
-115.307973126671
 20
4.09609068840008
 11
-115.295597965896
 21
4.09769856166028
 72
     1
 10
-115.295597965896
 20
4.09769856166028
 11
-115.28378891953
 21
4.101732949413579
 72
     1
 10
-115.28378891953
 20
4.101732949413579
 11
-115.273016776986
 21
4.10803301335148
 72
     1
 10
-115.273016776986
 20
4.10803301335148
 11
-115.263710989593
 21
4.11634758980567
 72
     1
 10
-115.263710989593
 20
4.11634758980567
 11
-115.256242549729
 21
4.12634520285128
 72
     1
 10
-115.256242549729
 20
4.12634520285128
 11
-115.250909200523
 21
4.137627279205379
 72
     1
 10
-115.250909200523
 20
4.137627279205379
 11
-115.247923565777
 21
4.14974403808638
 72
     1
 10
-115.247923565777
 20
4.14974403808638
 11
-115.247404673327
 21
4.16221242255438
 72
     1
 10
-115.247404673327
 20
4.16221242255438
 11
-115.249373209778
 21
4.17453535746688
 72
     1
 10
-115.249373209778
 20
4.17453535746688
 11
-115.253750695794
 21
4.18622156629608
 72
     1
 10
-115.253750695794
 20
4.18622156629608
 11
-115.26036261482
 21
4.19680515677408
 72
     1
 10
-115.26036261482
 20
4.19680515677408
 11
-115.268945370511
 21
4.205864194546879
 72
     1
 10
-115.268945370511
 20
4.205864194546879
 11
-115.279156795481
 21
4.213037524365979
 72
     1
 10
-115.279156795481
 20
4.213037524365979
 11
-115.290589792441
 21
4.21803916820828
 72
     1
 10
-115.290589792441
 20
4.21803916820828
 11
-115.302788563881
 21
4.22066972631728
 72
     1
 10
-115.302788563881
 20
4.22066972631728
 11
-115.31526678328
 21
4.22082432664238
 72
     1
 10
-115.31526678328
 20
4.22082432664238
 11
-115.327526983406
 21
4.21849680575658
 72
     1
 10
-115.327526983406
 20
4.21849680575658
 11
-115.339080388771
 21
4.21377995457268
 72
     1
 10
-115.339080388771
 20
4.21377995457268
 11
-115.349466401561
 21
4.20686181906238
 72
     1
 10
-115.349466401561
 20
4.20686181906238
 11
-115.358270964221
 21
4.19801820345718
 72
     1
 10
-115.358270964221
 20
4.19801820345718
 11
-115.365143066623
 21
4.187601674803479
 72
     1
 10
-115.365143066623
 20
4.187601674803479
 11
-115.36980873973
 21
4.176027507227579
 72
     1
 10
-115.36980873973
 20
4.176027507227579
 11
-115.372081977879
 21
4.16375712626627
 72
     1
 10
-115.372081977879
 20
4.16375712626627
 11
-115.372298096815
 21
4.158564038590179
 97
        0
 75
     1
 76
     0
 52
0.0
 41
0.1
 77
     0
 78
     1
 53
0.0
 43
0.0
 44
0.0
 45
0.0
 46
0.1
 79
     0
 98
        1
 10
0.0
 20
0.0
  0
HATCH
  5
6A9
330
1F
100
AcDbEntity
  8
0
  6
Continuous
 62
     4
100
AcDbHatch
 10
0.0
 20
0.0
 30
0.0
210
0.0
220
0.0
230
1.0
  2
_USER
 70
     0
 71
     0
 91
        1
 92
        1
 93
        7
 72
     1
 10
-115.562466625812
 20
5.13981403859019
 11
-115.057129567817
 21
5.13981403859019
 72
     1
 10
-115.057129567817
 20
5.13981403859019
 11
-114.572298096815
 21
3.93981403859018
 72
     1
 10
-114.572298096815
 20
3.93981403859018
 11
-114.971298096814
 21
3.93981403859018
 72
     1
 10
-114.971298096814
 20
3.93981403859018
 11
-115.309798096815
 21
4.69553496882318
 72
     1
 10
-115.309798096815
 20
4.69553496882318
 11
-115.648298096815
 21
3.93981403859018
 72
     1
 10
-115.648298096815
 20
3.93981403859018
 11
-116.047298096815
 21
3.93981403859018
 72
     1
 10
-116.047298096815
 20
3.93981403859018
 11
-115.562466625812
 21
5.13981403859019
 97
        0
 75
     1
 76
     0
 52
0.0
 41
0.1
 77
     0
 78
     1
 53
0.0
 43
0.0
 44
0.0
 45
0.0
 46
0.1
 79
     0
 98
        1
 10
0.0
 20
0.0
  0
ENDSEC
  0
SECTION
  2
OBJECTS
  0
DICTIONARY
  5
C
330
0
100
AcDbDictionary
281
     1
  3
ACAD_GROUP
350
D
  3
ACAD_LAYOUT
350
1A
  3
ACAD_MATERIAL
350
3B
  3
ACAD_MLEADERSTYLE
350
6AB
  3
ACAD_MLINESTYLE
350
17
  3
ACAD_PLOTSETTINGS
350
19
  3
ACAD_PLOTSTYLENAME
350
E
  3
ACAD_TABLESTYLE
350
6AA
  3
ACAD_VISUALSTYLE
350
2A
  0
DICTIONARY
  5
D
102
{ACAD_REACTORS
330
C
102
}
330
C
100
AcDbDictionary
281
     1
  0
DICTIONARY
  5
1A
102
{ACAD_REACTORS
330
C
102
}
330
C
100
AcDbDictionary
281
     1
  3
Layout1
350
1E
  3
Layout2
350
26
  3
Model
350
22
  0
DICTIONARY
  5
3B
102
{ACAD_REACTORS
330
C
102
}
330
C
100
AcDbDictionary
281
     1
  3
ByBlock
350
3D
  3
ByLayer
350
3C
  3
Global
350
3E
  0
DICTIONARY
  5
6AB
102
{ACAD_REACTORS
330
C
102
}
330
C
100
AcDbDictionary
281
     1
  0
DICTIONARY
  5
17
102
{ACAD_REACTORS
330
C
102
}
330
C
100
AcDbDictionary
281
     1
  3
Standard
350
18
  0
DICTIONARY
  5
19
102
{ACAD_REACTORS
330
C
102
}
330
C
100
AcDbDictionary
281
     1
  0
ACDBDICTIONARYWDFLT
  5
E
102
{ACAD_REACTORS
330
C
102
}
330
C
100
AcDbDictionary
281
     1
  3
Normal
350
F
100
AcDbDictionaryWithDefault
340
F
  0
DICTIONARY
  5
6AA
102
{ACAD_REACTORS
330
C
102
}
330
C
100
AcDbDictionary
281
     1
  0
DICTIONARY
  5
2A
102
{ACAD_REACTORS
330
C
102
}
330
C
100
AcDbDictionary
281
     1
  3
2dWireframe
350
2F
  3
3D Hidden
350
31
  3
3dWireframe
350
30
  3
Basic
350
32
  3
Brighten
350
36
  3
ColorChange
350
3A
  3
Conceptual
350
34
  3
Dim
350
35
  3
Facepattern
350
39
  3
Flat
350
2B
  3
FlatWithEdges
350
2C
  3
Gouraud
350
2D
  3
GouraudWithEdges
350
2E
  3
Linepattern
350
38
  3
Realistic
350
33
  3
Thicken
350
37
  0
LAYOUT
  5
1E
102
{ACAD_REACTORS
330
1A
102
}
330
1A
100
AcDbPlotSettings
  1

  2
none_device
  4

  6

 40
0.0
 41
0.0
 42
0.0
 43
0.0
 44
0.0
 45
0.0
 46
0.0
 47
0.0
 48
0.0
 49
0.0
140
0.0
141
0.0
142
1.0
143
1.0
 70
   688
 72
     0
 73
     0
 74
     5
  7

 75
    16
 76
     0
 77
     2
 78
   300
147
1.0
148
0.0
149
0.0
100
AcDbLayout
  1
Layout1
 70
     1
 71
     1
 10
0.0
 20
0.0
 11
12.0
 21
9.0
 12
0.0
 22
0.0
 32
0.0
 14
1.00000000000000E+20
 24
1.00000000000000E+20
 34
1.00000000000000E+20
 15
-1.00000000000000E+20
 25
-1.00000000000000E+20
 35
-1.00000000000000E+20
146
0.0
 13
0.0
 23
0.0
 33
0.0
 16
1.0
 26
0.0
 36
0.0
 17
0.0
 27
1.0
 37
0.0
 76
     0
330
1B
  0
LAYOUT
  5
26
102
{ACAD_REACTORS
330
1A
102
}
330
1A
100
AcDbPlotSettings
  1

  2
none_device
  4

  6

 40
0.0
 41
0.0
 42
0.0
 43
0.0
 44
0.0
 45
0.0
 46
0.0
 47
0.0
 48
0.0
 49
0.0
140
0.0
141
0.0
142
1.0
143
1.0
 70
   688
 72
     0
 73
     0
 74
     5
  7

 75
    16
 76
     0
 77
     2
 78
   300
147
1.0
148
0.0
149
0.0
100
AcDbLayout
  1
Layout2
 70
     1
 71
     2
 10
0.0
 20
0.0
 11
0.0
 21
0.0
 12
0.0
 22
0.0
 32
0.0
 14
0.0
 24
0.0
 34
0.0
 15
0.0
 25
0.0
 35
0.0
146
0.0
 13
0.0
 23
0.0
 33
0.0
 16
1.0
 26
0.0
 36
0.0
 17
0.0
 27
1.0
 37
0.0
 76
     0
330
23
  0
LAYOUT
  5
22
102
{ACAD_REACTORS
330
1A
102
}
330
1A
100
AcDbPlotSettings
  1

  2
none_device
  4

  6

 40
0.0
 41
0.0
 42
0.0
 43
0.0
 44
0.0
 45
0.0
 46
0.0
 47
0.0
 48
0.0
 49
0.0
140
0.0
141
0.0
142
1.0
143
1.0
 70
  1712
 72
     0
 73
     0
 74
     0
  7

 75
     0
 76
     0
 77
     2
 78
   300
147
1.0
148
0.0
149
0.0
100
AcDbLayout
  1
Model
 70
     1
 71
     0
 10
0.0
 20
0.0
 11
12.0
 21
9.0
 12
0.0
 22
0.0
 32
0.0
 14
-136.530113350979
 24
-29.67301756637192
 34
0.0
 15
-53.25687262530759
 25
83.3395779446977
 35
0.0
146
0.0
 13
0.0
 23
0.0
 33
0.0
 16
1.0
 26
0.0
 36
0.0
 17
0.0
 27
1.0
 37
0.0
 76
     0
330
1F
331
29
  0
MATERIAL
  5
3D
102
{ACAD_REACTORS
330
3B
102
}
330
3B
100
AcDbMaterial
  1
ByBlock
 72
     1
 94
      127
  0
MATERIAL
  5
3C
102
{ACAD_REACTORS
330
3B
102
}
330
3B
100
AcDbMaterial
  1
ByLayer
 72
     1
 94
      127
  0
MATERIAL
  5
3E
102
{ACAD_REACTORS
330
3B
102
}
330
3B
100
AcDbMaterial
  1
Global
 72
     1
 94
      127
  0
MLINESTYLE
  5
18
102
{ACAD_REACTORS
330
17
102
}
330
17
100
AcDbMlineStyle
  2
Standard
 70
     0
  3

 62
   256
 51
90.0
 52
90.0
 71
     2
 49
0.5
 62
   256
  6
BYLAYER
 49
-0.5
 62
   256
  6
BYLAYER
  0
ACDBPLACEHOLDER
  5
F
102
{ACAD_REACTORS
330
E
102
}
330
E
  0
VISUALSTYLE
  5
2F
102
{ACAD_REACTORS
330
2A
102
}
330
2A
100
AcDbVisualStyle
  2
2dWireframe
 70
     4
177
     2
291
     0
 71
     0
176
     1
 72
     2
176
     1
 73
     0
176
     1
 90
        0
176
     1
 40
-0.6
176
     1
 41
-30.0
176
     1
 62
     5
 63
     7
421
 16777215
176
     1
 74
     1
176
     1
 91
        4
176
     1
 64
     7
176
     1
 65
   257
176
     1
 75
     1
176
     1
175
     1
176
     1
 42
1.0
176
     1
 92
        0
176
     1
 66
   257
176
     1
 43
1.0
176
     1
 76
     1
176
     1
 77
     6
176
     1
 78
     2
176
     1
 67
     7
176
     1
 79
     5
176
     1
170
     0
176
     1
171
     0
176
     1
290
     0
176
     1
 93
        1
176
     1
 44
0.0
176
     1
173
     0
176
     1
  0
VISUALSTYLE
  5
31
102
{ACAD_REACTORS
330
2A
102
}
330
2A
100
AcDbVisualStyle
  2
3D Hidden
 70
     6
177
     2
291
     0
 71
     1
176
     1
 72
     2
176
     1
 73
     2
176
     1
 90
        0
176
     1
 40
-0.6
176
     1
 41
-30.0
176
     1
 62
     5
 63
     7
421
 16777215
176
     1
 74
     2
176
     1
 91
        2
176
     1
 64
     7
176
     1
 65
   257
176
     1
 75
     2
176
     1
175
     1
176
     1
 42
40.0
176
     1
 92
        0
176
     1
 66
   257
176
     1
 43
1.0
176
     1
 76
     1
176
     1
 77
     6
176
     1
 78
     2
176
     1
 67
     7
176
     1
 79
     3
176
     1
170
     0
176
     1
171
     0
176
     1
290
     0
176
     1
 93
        1
176
     1
 44
0.0
176
     1
173
     0
176
     1
  0
VISUALSTYLE
  5
30
102
{ACAD_REACTORS
330
2A
102
}
330
2A
100
AcDbVisualStyle
  2
3dWireframe
 70
     5
177
     2
291
     0
 71
     0
176
     1
 72
     2
176
     1
 73
     0
176
     1
 90
        0
176
     1
 40
-0.6
176
     1
 41
-30.0
176
     1
 62
     5
 63
     7
421
 16777215
176
     1
 74
     1
176
     1
 91
        4
176
     1
 64
     7
176
     1
 65
   257
176
     1
 75
     1
176
     1
175
     1
176
     1
 42
1.0
176
     1
 92
        0
176
     1
 66
   257
176
     1
 43
1.0
176
     1
 76
     1
176
     1
 77
     6
176
     1
 78
     2
176
     1
 67
     7
176
     1
 79
     5
176
     1
170
     0
176
     1
171
     0
176
     1
290
     0
176
     1
 93
        1
176
     1
 44
0.0
176
     1
173
     0
176
     1
  0
VISUALSTYLE
  5
32
102
{ACAD_REACTORS
330
2A
102
}
330
2A
100
AcDbVisualStyle
  2
Basic
 70
     7
177
     2
291
     1
 71
     1
176
     1
 72
     0
176
     1
 73
     1
176
     1
 90
        0
176
     1
 40
-0.6
176
     1
 41
-30.0
176
     1
 62
     5
 63
     7
421
 16777215
176
     1
 74
     0
176
     1
 91
        4
176
     1
 64
     7
176
     1
 65
   257
176
     1
 75
     1
176
     1
175
     1
176
     1
 42
1.0
176
     1
 92
        8
176
     1
 66
     7
176
     1
 43
1.0
176
     1
 76
     1
176
     1
 77
     6
176
     1
 78
     2
176
     1
 67
     7
176
     1
 79
     5
176
     1
170
     0
176
     1
171
     0
176
     1
290
     0
176
     1
 93
        1
176
     1
 44
0.0
176
     1
173
     0
176
     1
  0
VISUALSTYLE
  5
36
102
{ACAD_REACTORS
330
2A
102
}
330
2A
100
AcDbVisualStyle
  2
Brighten
 70
    12
177
     2
291
     1
 71
     2
176
     1
 72
     2
176
     1
 73
     0
176
     1
 90
        0
176
     1
 40
-0.6
176
     1
 41
-30.0
176
     1
 62
     5
 63
     7
421
 16777215
176
     1
 74
     1
176
     1
 91
        4
176
     1
 64
     7
176
     1
 65
   257
176
     1
 75
     1
176
     1
175
     1
176
     1
 42
1.0
176
     1
 92
        8
176
     1
 66
     7
176
     1
 43
1.0
176
     1
 76
     1
176
     1
 77
     6
176
     1
 78
     2
176
     1
 67
     7
176
     1
 79
     5
176
     1
170
     0
176
     1
171
     0
176
     1
290
     0
176
     1
 93
        1
176
     1
 44
50.0
176
     1
173
     0
176
     1
  0
VISUALSTYLE
  5
3A
102
{ACAD_REACTORS
330
2A
102
}
330
2A
100
AcDbVisualStyle
  2
ColorChange
 70
    16
177
     2
291
     1
 71
     2
176
     1
 72
     2
176
     1
 73
     3
176
     1
 90
        0
176
     1
 40
-0.6
176
     1
 41
-30.0
176
     1
 62
     5
 63
     8
421
  8421504
176
     1
 74
     1
176
     1
 91
        4
176
     1
 64
     7
176
     1
 65
   257
176
     1
 75
     1
176
     1
175
     1
176
     1
 42
1.0
176
     1
 92
        8
176
     1
 66
     8
424
  8421504
176
     1
 43
1.0
176
     1
 76
     1
176
     1
 77
     6
176
     1
 78
     2
176
     1
 67
     7
176
     1
 79
     5
176
     1
170
     0
176
     1
171
     0
176
     1
290
     0
176
     1
 93
        1
176
     1
 44
0.0
176
     1
173
     0
176
     1
  0
VISUALSTYLE
  5
34
102
{ACAD_REACTORS
330
2A
102
}
330
2A
100
AcDbVisualStyle
  2
Conceptual
 70
     9
177
     2
291
     0
 71
     3
176
     1
 72
     2
176
     1
 73
     0
176
     1
 90
        0
176
     1
 40
-0.6
176
     1
 41
-30.0
176
     1
 62
     5
 63
     7
421
 16777215
176
     1
 74
     2
176
     1
 91
        2
176
     1
 64
     7
176
     1
 65
   257
176
     1
 75
     1
176
     1
175
     1
176
     1
 42
40.0
176
     1
 92
        8
176
     1
 66
     7
176
     1
 43
1.0
176
     1
 76
     1
176
     1
 77
     6
176
     1
 78
     2
176
     1
 67
     7
176
     1
 79
     3
176
     1
170
     0
176
     1
171
     0
176
     1
290
     0
176
     1
 93
        1
176
     1
 44
0.0
176
     1
173
     0
176
     1
  0
VISUALSTYLE
  5
35
102
{ACAD_REACTORS
330
2A
102
}
330
2A
100
AcDbVisualStyle
  2
Dim
 70
    11
177
     2
291
     1
 71
     2
176
     1
 72
     2
176
     1
 73
     0
176
     1
 90
        0
176
     1
 40
-0.6
176
     1
 41
-30.0
176
     1
 62
     5
 63
     7
421
 16777215
176
     1
 74
     1
176
     1
 91
        4
176
     1
 64
     7
176
     1
 65
   257
176
     1
 75
     1
176
     1
175
     1
176
     1
 42
1.0
176
     1
 92
        8
176
     1
 66
     7
176
     1
 43
1.0
176
     1
 76
     1
176
     1
 77
     6
176
     1
 78
     2
176
     1
 67
     7
176
     1
 79
     5
176
     1
170
     0
176
     1
171
     0
176
     1
290
     0
176
     1
 93
        1
176
     1
 44
-50.0
176
     1
173
     0
176
     1
  0
VISUALSTYLE
  5
39
102
{ACAD_REACTORS
330
2A
102
}
330
2A
100
AcDbVisualStyle
  2
Facepattern
 70
    15
177
     2
291
     1
 71
     2
176
     1
 72
     2
176
     1
 73
     0
176
     1
 90
        0
176
     1
 40
-0.6
176
     1
 41
-30.0
176
     1
 62
     5
 63
     7
421
 16777215
176
     1
 74
     1
176
     1
 91
        4
176
     1
 64
     7
176
     1
 65
   257
176
     1
 75
     1
176
     1
175
     1
176
     1
 42
1.0
176
     1
 92
        8
176
     1
 66
     7
176
     1
 43
1.0
176
     1
 76
     1
176
     1
 77
     6
176
     1
 78
     2
176
     1
 67
     7
176
     1
 79
     5
176
     1
170
     0
176
     1
171
     0
176
     1
290
     0
176
     1
 93
        1
176
     1
 44
0.0
176
     1
173
     0
176
     1
  0
VISUALSTYLE
  5
2B
102
{ACAD_REACTORS
330
2A
102
}
330
2A
100
AcDbVisualStyle
  2
Flat
 70
     0
177
     2
291
     1
 71
     2
176
     1
 72
     1
176
     1
 73
     1
176
     1
 90
        2
176
     1
 40
-0.6
176
     1
 41
30.0
176
     1
 62
     5
 63
     7
421
 16777215
176
     1
 74
     0
176
     1
 91
        4
176
     1
 64
     7
176
     1
 65
   257
176
     1
 75
     1
176
     1
175
     1
176
     1
 42
1.0
176
     1
 92
        8
176
     1
 66
     7
176
     1
 43
1.0
176
     1
 76
     1
176
     1
 77
     6
176
     1
 78
     2
176
     1
 67
     7
176
     1
 79
     5
176
     1
170
     0
176
     1
171
     0
176
     1
290
     0
176
     1
 93
       13
176
     1
 44
0.0
176
     1
173
     0
176
     1
  0
VISUALSTYLE
  5
2C
102
{ACAD_REACTORS
330
2A
102
}
330
2A
100
AcDbVisualStyle
  2
FlatWithEdges
 70
     1
177
     2
291
     1
 71
     2
176
     1
 72
     1
176
     1
 73
     1
176
     1
 90
        2
176
     1
 40
-0.6
176
     1
 41
30.0
176
     1
 62
     5
 63
     7
421
 16777215
176
     1
 74
     1
176
     1
 91
        4
176
     1
 64
     7
176
     1
 65
   257
176
     1
 75
     1
176
     1
175
     1
176
     1
 42
1.0
176
     1
 92
        0
176
     1
 66
   257
176
     1
 43
1.0
176
     1
 76
     1
176
     1
 77
     6
176
     1
 78
     2
176
     1
 67
     7
176
     1
 79
     5
176
     1
170
     0
176
     1
171
     0
176
     1
290
     0
176
     1
 93
       13
176
     1
 44
0.0
176
     1
173
     0
176
     1
  0
VISUALSTYLE
  5
2D
102
{ACAD_REACTORS
330
2A
102
}
330
2A
100
AcDbVisualStyle
  2
Gouraud
 70
     2
177
     2
291
     1
 71
     2
176
     1
 72
     2
176
     1
 73
     1
176
     1
 90
        2
176
     1
 40
-0.6
176
     1
 41
30.0
176
     1
 62
     5
 63
     7
421
 16777215
176
     1
 74
     0
176
     1
 91
        4
176
     1
 64
     7
176
     1
 65
   257
176
     1
 75
     1
176
     1
175
     1
176
     1
 42
1.0
176
     1
 92
        0
176
     1
 66
     7
176
     1
 43
1.0
176
     1
 76
     1
176
     1
 77
     6
176
     1
 78
     2
176
     1
 67
     7
176
     1
 79
     5
176
     1
170
     0
176
     1
171
     0
176
     1
290
     0
176
     1
 93
       13
176
     1
 44
0.0
176
     1
173
     0
176
     1
  0
VISUALSTYLE
  5
2E
102
{ACAD_REACTORS
330
2A
102
}
330
2A
100
AcDbVisualStyle
  2
GouraudWithEdges
 70
     3
177
     2
291
     1
 71
     2
176
     1
 72
     2
176
     1
 73
     1
176
     1
 90
        2
176
     1
 40
-0.6
176
     1
 41
30.0
176
     1
 62
     5
 63
     7
421
 16777215
176
     1
 74
     1
176
     1
 91
        4
176
     1
 64
     7
176
     1
 65
   257
176
     1
 75
     1
176
     1
175
     1
176
     1
 42
1.0
176
     1
 92
        0
176
     1
 66
   257
176
     1
 43
1.0
176
     1
 76
     1
176
     1
 77
     6
176
     1
 78
     2
176
     1
 67
     7
176
     1
 79
     5
176
     1
170
     0
176
     1
171
     0
176
     1
290
     0
176
     1
 93
       13
176
     1
 44
0.0
176
     1
173
     0
176
     1
  0
VISUALSTYLE
  5
38
102
{ACAD_REACTORS
330
2A
102
}
330
2A
100
AcDbVisualStyle
  2
Linepattern
 70
    14
177
     2
291
     1
 71
     2
176
     1
 72
     2
176
     1
 73
     0
176
     1
 90
        0
176
     1
 40
-0.6
176
     1
 41
-30.0
176
     1
 62
     5
 63
     7
421
 16777215
176
     1
 74
     1
176
     1
 91
        4
176
     1
 64
     7
176
     1
 65
   257
176
     1
 75
     7
176
     1
175
     7
176
     1
 42
1.0
176
     1
 92
        8
176
     1
 66
     7
176
     1
 43
1.0
176
     1
 76
     1
176
     1
 77
     6
176
     1
 78
     2
176
     1
 67
     7
176
     1
 79
     5
176
     1
170
     0
176
     1
171
     0
176
     1
290
     0
176
     1
 93
        1
176
     1
 44
0.0
176
     1
173
     0
176
     1
  0
VISUALSTYLE
  5
33
102
{ACAD_REACTORS
330
2A
102
}
330
2A
100
AcDbVisualStyle
  2
Realistic
 70
     8
177
     2
291
     0
 71
     2
176
     1
 72
     2
176
     1
 73
     0
176
     1
 90
        0
176
     1
 40
-0.6
176
     1
 41
-30.0
176
     1
 62
     5
 63
     7
421
 16777215
176
     1
 74
     1
176
     1
 91
        0
176
     1
 64
     7
176
     1
 65
   257
176
     1
 75
     1
176
     1
175
     1
176
     1
 42
1.0
176
     1
 92
        8
176
     1
 66
     8
424
  7895160
176
     1
 43
1.0
176
     1
 76
     1
176
     1
 77
     6
176
     1
 78
     2
176
     1
 67
     7
176
     1
 79
     5
176
     1
170
     0
176
     1
171
     0
176
     1
290
     0
176
     1
 93
       13
176
     1
 44
0.0
176
     1
173
     0
176
     1
  0
VISUALSTYLE
  5
37
102
{ACAD_REACTORS
330
2A
102
}
330
2A
100
AcDbVisualStyle
  2
Thicken
 70
    13
177
     2
291
     1
 71
     2
176
     1
 72
     2
176
     1
 73
     0
176
     1
 90
        0
176
     1
 40
-0.6
176
     1
 41
-30.0
176
     1
 62
     5
 63
     7
421
 16777215
176
     1
 74
     1
176
     1
 91
        4
176
     1
 64
     7
176
     1
 65
   257
176
     1
 75
     1
176
     1
175
     1
176
     1
 42
1.0
176
     1
 92
       12
176
     1
 66
     7
176
     1
 43
1.0
176
     1
 76
     1
176
     1
 77
     6
176
     1
 78
     2
176
     1
 67
     7
176
     1
 79
     5
176
     1
170
     0
176
     1
171
     0
176
     1
290
     0
176
     1
 93
        1
176
     1
 44
0.0
176
     1
173
     0
176
     1
  0
ENDSEC
  0
EOF
